fastshare
Španglicky snadno a rychle / Spanglish (2004)
Vypnout statistiky
KATEGORIEPOSLEDNÍ PŘÍSPĚVKYPOSLEDNÍ OZNÁMENÍSTATISTIKY UŽIVATELE
Nick: Anonymous
Příspěvků: 2287
Hodnost: Warman
Varování: 0
---
Právě je 24 kvě 2022, 06:47





Všechny časy jsou v UTC + 1 hodina


Pravidla fóra







Odeslat nové téma Odpovědět na téma  [ Příspěvků: 7 ] 
 Španglicky snadno a rychle / Spanglish (2004) 
Autor Zpráva
V.I.P.
V.I.P.
Uživatelský avatar

Registrován: 30 srp 2006, 08:57
Příspěvky: 1565
Bydliště: Warcenter
Příspěvek Španglicky snadno a rychle / Spanglish (2004)


    Španglicky snadno a rychle / Spanglish (2004)

    Španglicky snadno a rychle / Spanglish (2004)

    Španglicky snadno a rychle / Spanglish (2004)Španglicky snadno a rychle / Spanglish (2004)

Jen registrovaní uživatelé mohou vidět odkazy v code. Přihlaste se nebo zaregistrujte ZDARMA.

Jen registrovaní uživatelé mohou vidět odkazy v code. Přihlaste se nebo zaregistrujte ZDARMA.


_________________


12 úno 2007, 07:15
Profil
V.I.P.
V.I.P.
Uživatelský avatar

Registrován: 25 úno 2007, 20:08
Příspěvky: 305
Příspěvek Re: Španglicky snadno a rychle / Spanglish (2004)

....

_________________


Naposledy upravil dziady dne 03 kvě 2012, 01:17, celkově upraveno 1

02 kvě 2008, 16:08
Profil
Private
Private
Uživatelský avatar

Registrován: 11 dub 2008, 20:42
Příspěvky: 13
Příspěvek Re: Španglicky snadno a rychle / Spanglish (2004)

part 7 na uloz to je smazany mohl by to někdo upnout znovu

dziady: použij mirror na rapidshare.com

_________________
i_m_a_g_e


28 kvě 2008, 13:24
Profil
Private
Private
Uživatelský avatar

Registrován: 11 dub 2008, 20:42
Příspěvky: 13
Příspěvek Re: Španglicky snadno a rychle / Spanglish (2004)

děkuji

_________________
i_m_a_g_e


28 kvě 2008, 20:37
Profil
Private
Private
Uživatelský avatar

Registrován: 11 dub 2008, 20:42
Příspěvky: 13
Příspěvek Re: Španglicky snadno a rychle / Spanglish (2004)

tak použij ten rapidshare

_________________
i_m_a_g_e


29 kvě 2008, 21:17
Profil
Warman
Warman
Uživatelský avatar

Registrován: 12 říj 2009, 17:30
Příspěvky: 1363
Příspěvek Re: Španglicky snadno a rychle / Spanglish (2004)

Španglicky snadno a rychle/Spanglish(2004)






Re: Španglicky snadno a rychle / Spanglish (2004)

Re: Španglicky snadno a rychle / Spanglish (2004)


ŠPANGLICKY SNADNO A RYCHLE - ŠPANGLIČTINA = hybrid španělštiny a angličtiny, který hovoří 40 milionů hispánských obyvatel USA. Komedie, která mluví sama za sebe. John Clasky (Adam Sandler) je oddaný otec rodiny. Jako vyhlášený šéfkuchař, dobře zajišťuje své nejbližší a dopřává jim luxusu včetně prázdninového domu v Malibu. V něm získá práci jako hospodyně krásná Flor (Paz Vega), která přišla do Ameriky společně se svou dcerkou před nedávnem z Mexika. Ale život v nové zemi bude složitější než si představovala ... Hlavně pro její dceru! Zvlášť když se vás ujme taková zazobaná, ale trošku ztřeštěná rodinka! Příběh tohoto filmu je upřímným a osvěžujícím pohledem na důležité životní závazky, jakými jsou manželství, superstar, rodičovství nebo oddanost svým nejbližším.



Re: Španglicky snadno a rychle / Spanglish (2004)
Jen registrovaní uživatelé mohou vidět odkazy v code. Přihlaste se nebo zaregistrujte ZDARMA.



eneral

Format : AVI
Format/Info : Audio Video Interleave
File size : 1.44 GiB
Duration : 2h 5mn
Overall bit rate : 1 643 Kbps
Writing application : Lavf52.17.0

Video
Format : MPEG-4 Visual
Format profile : [email protected]
Format settings, BVOP : No
Format settings, QPel : No
Format settings, GMC : No warppoints
Format settings, Matrix : Default (H.263)
Codec ID : XVID
Codec ID/Hint : XviD
Duration : 2h 5mn
Bit rate : 1 440 Kbps
Width : 720 pixels
Height : 392 pixels
Display aspect ratio : 16/9
Frame rate : 25.000 fps
Resolution : 24 bits
Colorimetry : 4:2:0
Scan type : Progressive
Bits/(Pixel*Frame) : 0.204
Stream size : 1.26 GiB (88%)
Writing library : XviD 1.1.2 (UTC 2006-11-01)

Audio
Format : AC-3
Format/Info : Audio Coding 3
Format profile : Dolby Digital
Codec ID : 2000
Duration : 2h 5mn
Bit rate mode : Constant
Bit rate : 192 Kbps
Channel(s) : 2 channels
Channel positions : L R
Sampling rate : 48.0 KHz
Stream size : 173 MiB (12%)
Alignment : Aligned on interleaves
Interleave, duration : 32 ms (0.80 video frame)
Interleave, preload duration : 32 ms





Re: Španglicky snadno a rychle / Spanglish (2004)

Re: Španglicky snadno a rychle / Spanglish (2004)
Re: Španglicky snadno a rychle / Spanglish (2004)
1x750mb,1x721,4mb


Jen registrovaní uživatelé mohou vidět odkazy v code. Přihlaste se nebo zaregistrujte ZDARMA.





Re: Španglicky snadno a rychle / Spanglish (2004)

Jen registrovaní uživatelé mohou vidět odkazy v code. Přihlaste se nebo zaregistrujte ZDARMA.


14 lis 2009, 19:55
Profil
Zobrazit příspěvky za předchozí:  Seřadit podle  
Odeslat nové téma Odpovědět na téma  [ Příspěvků: 7 ] 

Všechny časy jsou v UTC + 1 hodina


Nemůžete zakládat nová témata v tomto fóru
Nemůžete odpovídat v tomto fóru
Nemůžete upravovat své příspěvky v tomto fóru
Nemůžete mazat své příspěvky v tomto fóru
Nemůžete přikládat soubory v tomto fóru









StahovaniZaSMS Pizza Modena MP3 free download