fastshare
Rafťáci (2006)
Vypnout statistiky
KATEGORIEPOSLEDNÍ PŘÍSPĚVKYPOSLEDNÍ OZNÁMENÍSTATISTIKY UŽIVATELE
Nick: Anonymous
Příspěvků: 2287
Hodnost: Warman
Varování: 0
---
Právě je 24 kvě 2022, 07:19





Všechny časy jsou v UTC + 1 hodina


Pravidla fóra







Odeslat nové téma Odpovědět na téma  [ Příspěvků: 18 ]  Přejít na stránku 1, 2  Další
 Rafťáci (2006) 
Autor Zpráva
V.I.P.
V.I.P.
Uživatelský avatar

Registrován: 30 srp 2006, 08:57
Příspěvky: 1565
Bydliště: Warcenter
Příspěvek Rafťáci (2006)


    Rafťáci

    Rafťáci (2006)

    Info o Filmu:

    Rafťáci (2006)Rafťáci (2006)


    DVDRip
    Video Format.........: AVI
    Video Bitrate........: 1424 kb/s
    Audio Bitrate........: AC3 448 kb/s
    Codec URL............: XviD
    Resolution...........: 704 x 384
    FPS..................: 25
    Source...............: DVD 16:9
    Original Format......: PAL

Jen registrovaní uživatelé mohou vidět odkazy v code. Přihlaste se nebo zaregistrujte ZDARMA.

    jiná verze

    DVDRip
    Video Size: 640x352
    Framerate: 25.0
    Aspect Ratio: 16:9
    Encoder: Xvid 1.1
    Release size: CD1 700 MB, CD2 700 MB
    Video Bitrate: 1431 kbps
    Audio Codec: AC3 5.1
    Audio Bitrate: 448kbps

Jen registrovaní uživatelé mohou vidět odkazy v code. Přihlaste se nebo zaregistrujte ZDARMA.


_________________


Naposledy upravil Nerez dne 10 říj 2006, 07:49, celkově upraveno 1

08 říj 2006, 22:10
Profil
V.I.P.
V.I.P.
Uživatelský avatar

Registrován: 30 srp 2006, 08:57
Příspěvky: 1565
Bydliště: Warcenter
Příspěvek 





    jen film bez bonusů a menu zvuk 5.1 cz, titulky cz,en

Jen registrovaní uživatelé mohou vidět odkazy v code. Přihlaste se nebo zaregistrujte ZDARMA.


_________________


08 říj 2006, 22:20
Profil
Sponzor 2 nd class
Sponzor 2 nd class

Registrován: 13 říj 2006, 20:06
Příspěvky: 1
Příspěvek 

Při stahování 2cd Rafťáci 7part (heslo soerte) se při 92% stahování pokaždé složili Windows a musel jsem
spouštět konzolu pro opravu.Vžy byli vymazány nebo poškozeny systemové soubory.Nevíte co se děje? Díky


30 říj 2006, 16:47
Profil
Private
Private

Registrován: 12 lis 2006, 15:16
Příspěvky: 1
Příspěvek 

nefunguje mi heslo soerte na raftaky co s tim


12 lis 2006, 18:16
Profil
V.I.P.
V.I.P.
Uživatelský avatar

Registrován: 30 čer 2007, 17:06
Příspěvky: 151
Příspěvek Re: Rafťáci (2006)

namáte někdo náhodou odkaz na Czshare ???


28 pro 2007, 09:32
Profil
V.I.P.
V.I.P.
Uživatelský avatar

Registrován: 26 bře 2007, 21:39
Příspěvky: 91
Bydliště: Všude kde je internet
Příspěvek Re: Rafťáci (2006)

Jen registrovaní uživatelé mohou vidět odkazy v code. Přihlaste se nebo zaregistrujte ZDARMA.

_________________
AMD Phenom II 4X 940 3Ghz, Kingston HyperX 4 GB, Ati Radeon HD 5870, 640 GB
Máte na své linky copyright!!!
Jen registrovaní uživatelé mohou vidět odkazy v code. Přihlaste se nebo zaregistrujte ZDARMA.


07 dub 2008, 14:35
Profil
Private
Private

Registrován: 15 dub 2008, 10:16
Příspěvky: 5
Příspěvek Rafťáci (2006)

Rafťáci (2006)

Rafťáci (2006)

Info:

Jen registrovaní uživatelé mohou vidět odkazy v code. Přihlaste se nebo zaregistrujte ZDARMA.


Kvalita:

Rafťáci (2006)

Size:

687 MB

Jen registrovaní uživatelé mohou vidět odkazy v code. Přihlaste se nebo zaregistrujte ZDARMA.


Pass: maroshko

uploaded by Maroshko


17 dub 2008, 08:12
Profil
Private
Private

Registrován: 18 dub 2009, 12:04
Příspěvky: 1
Příspěvek Re: Rafťáci (2006)

Sorry, but this link; http://www.megaupload.com/?d=CZK53US7 ( 8 link) is order.


20 dub 2009, 17:28
Profil
Private
Private

Registrován: 04 úno 2009, 15:30
Příspěvky: 1
Příspěvek Re: Rafťáci (2006)

Pls CZshare, děkuji

_________________
i_m_a_g_e


22 črc 2009, 11:23
Profil
Private
Private

Registrován: 14 bře 2007, 23:51
Příspěvky: 1
Příspěvek Re: Rafťáci (2006)

Maroshko píše:
Rafťáci (2006)

Re: Rafťáci (2006)

Info:

Jen registrovaní uživatelé mohou vidět odkazy v code. Přihlaste se nebo zaregistrujte ZDARMA.


Kvalita:

Re: Rafťáci (2006)

Size:

687 MB

Jen registrovaní uživatelé mohou vidět odkazy v code. Přihlaste se nebo zaregistrujte ZDARMA.


Pass: maroshko

uploaded by Maroshko





KVALITA K ZBLIZÍ


06 bře 2010, 13:28
Profil
Private
Private

Registrován: 15 kvě 2010, 23:47
Příspěvky: 2
Příspěvek Re: Rafťáci (2006)

toca-cz píše:
Maroshko píše:
Rafťáci (2006)

Re: Rafťáci (2006)

Info:

Jen registrovaní uživatelé mohou vidět odkazy v code. Přihlaste se nebo zaregistrujte ZDARMA.


Kvalita:

Re: Rafťáci (2006)

Size:

687 MB

Jen registrovaní uživatelé mohou vidět odkazy v code. Přihlaste se nebo zaregistrujte ZDARMA.


Pass: maroshko

uploaded by Maroshko





KVALITA K ZBLIZÍ

Je to kinorip, junk


18 čer 2010, 15:23
Profil
Private
Private

Registrován: 17 kvě 2010, 13:28
Příspěvky: 1
Příspěvek Re: Rafťáci (2006)

dusenasunka píše:
Re: Rafťáci (2006)

Re: Rafťáci (2006)


Jen registrovaní uživatelé mohou vidět odkazy v code. Přihlaste se nebo zaregistrujte ZDARMA.


:--:
NO PASS



kvalita obrazu hrozná :-(


03 lis 2010, 13:47
Profil
Captain
Captain
Uživatelský avatar

Registrován: 04 říj 2008, 11:10
Příspěvky: 260
Příspěvek Re: Rafťáci (2006)

Re: Rafťáci (2006)
Jen registrovaní uživatelé mohou vidět odkazy v code. Přihlaste se nebo zaregistrujte ZDARMA.


Kvalita.č1:
Format : AVI
Format/Info : Audio Video Interleave
File size : 736 MiB
Duration : 1h 43mn
Overall bit rate : 991 Kbps

Video
ID : 0
Format : MPEG-4 Visual
Format settings, BVOP : Yes
Format settings, QPel : No
Format settings, GMC : No warppoints
Format settings, Matrix : Default (H.263)
Muxing mode : Packed bitstream
Codec ID : DX50
Codec ID/Hint : DivX 5
Duration : 1h 43mn
Bit rate : 794 Kbps
Width : 640 pixels
Height : 368 pixels
Display aspect ratio : 16:9
Frame rate : 25.000 fps
Color space : YUV
Chroma subsampling : 4:2:0
Bit depth : 8 bits
Scan type : Progressive
Bits/(Pixel*Frame) : 0.135
Stream size : 590 MiB (80%)
Title : raftaci.avi Video č.1
Writing library : DivX 6.5.1 (UTC 2007-03)

Audio
ID : 1
Format : MPEG Audio
Format version : Version 1
Format profile : Layer 3
Mode : Joint stereo
Mode extension : MS Stereo
Emphasis : 50/15ms
Codec ID : 55
Codec ID/Hint : MP3
Duration : 1h 43mn
Bit rate mode : Constant
Bit rate : 192 Kbps
Channel(s) : 2 channels
Sampling rate : 44.1 KHz
Video delay : 26ms
Stream size : 143 MiB (19%)
Alignment : Split accross interleaves
Interleave, duration : 5459 ms (136.47 video frames)
Title : Audio Stream

Download:
Jen registrovaní uživatelé mohou vidět odkazy v code. Přihlaste se nebo zaregistrujte ZDARMA.



Kvalita.č2:996 MiB

Format : AVI
Format/Info : Audio Video Interleave
File size : 996 MiB
Duration : 1h 43mn
Overall bit rate : 1 340 Kbps

Video
ID : 0
Format : MPEG-4 Visual
Format profile : [email protected]
Format settings, BVOP : No
Format settings, QPel : No
Format settings, GMC : No warppoints
Format settings, Matrix : Default (H.263)
Codec ID : DIVX
Codec ID/Info : Project Mayo
Codec ID/Hint : DivX 4
Duration : 1h 43mn
Bit rate : 1 199 Kbps
Width : 720 pixels
Height : 576 pixels
Display aspect ratio : 5:4
Frame rate : 25.000 fps
Standard : PAL
Color space : YUV
Chroma subsampling : 4:2:0
Bit depth : 8 bits
Scan type : Progressive
Bits/(Pixel*Frame) : 0.116
Stream size : 892 MiB (89%)
Writing library : avc2.0.11.1110

Audio
ID : 1
Format : MPEG Audio
Format version : Version 1
Format profile : Layer 3
Mode : Joint stereo
Mode extension : MS Stereo
Codec ID : 55
Codec ID/Hint : MP3
Duration : 1h 43mn
Bit rate mode : Constant
Bit rate : 128 Kbps
Channel(s) : 2 channels
Sampling rate : 48.0 KHz
Stream size : 95.2 MiB (10%)
Alignment : Aligned on interleaves
Interleave, duration : 24 ms (0.60 video frame)
Writing library : LAME3.96.1

Download:
Jen registrovaní uživatelé mohou vidět odkazy v code. Přihlaste se nebo zaregistrujte ZDARMA.


03 lis 2010, 23:09
Profil
Corporal
Corporal

Registrován: 11 bře 2007, 14:33
Příspěvky: 71
Příspěvek Re: Rafťáci (2006)

Rafťáci (2006)
Re: Rafťáci (2006)
Info
Citace:
Dĺžka 01h 40mn 35s
Kodek XviD (AVI)
Bitrate 786 Kbps
Šírka 640 pixels
Výška 480 pixels
Pomer strán 4
Frekvencia snímok 25.000 fps
Prekladanie Progressive

Download
Jen registrovaní uživatelé mohou vidět odkazy v code. Přihlaste se nebo zaregistrujte ZDARMA.


21 led 2011, 13:03
Profil
Corporal
Corporal

Registrován: 13 úno 2011, 18:24
Příspěvky: 57
Příspěvek Re: Rafťáci (2006)

)..(
Jen registrovaní uživatelé mohou vidět odkazy v code. Přihlaste se nebo zaregistrujte ZDARMA.


18 úno 2011, 10:43
Profil
Zobrazit příspěvky za předchozí:  Seřadit podle  
Odeslat nové téma Odpovědět na téma  [ Příspěvků: 18 ]  Přejít na stránku 1, 2  Další

Všechny časy jsou v UTC + 1 hodina


Nemůžete zakládat nová témata v tomto fóru
Nemůžete odpovídat v tomto fóru
Nemůžete upravovat své příspěvky v tomto fóru
Nemůžete mazat své příspěvky v tomto fóru
Nemůžete přikládat soubory v tomto fóru









StahovaniZaSMS Pizza Modena MP3 free download