fastshare
V tajné službě Jejího veličenstva (1969)
Vypnout statistiky
KATEGORIEPOSLEDNÍ PŘÍSPĚVKYPOSLEDNÍ OZNÁMENÍSTATISTIKY UŽIVATELE
Nick: Anonymous
Příspěvků: 2287
Hodnost: Warman
Varování: 0
---
Právě je 21 kvě 2022, 22:03





Všechny časy jsou v UTC + 1 hodina


Pravidla fóra







Odeslat nové téma Odpovědět na téma  [ Příspěvků: 5 ] 
 V tajné službě Jejího veličenstva (1969) 
Autor Zpráva
Corporal
Corporal

Registrován: 09 lis 2006, 06:08
Příspěvky: 71
Příspěvek V tajné službě Jejího veličenstva (1969)

INFO:
Jen registrovaní uživatelé mohou vidět odkazy v code. Přihlaste se nebo zaregistrujte ZDARMA.

Příloha:
a.jpg


KVALITA:
DVDrip
video: 720x400, 1192 kb/s
audio: mp3 128 kb/s, 44100Hz
velikost: 1293 MB

Jen registrovaní uživatelé mohou vidět odkazy v code. Přihlaste se nebo zaregistrujte ZDARMA.


Nemáte oprávnění prohlížet přiložené soubory.


03 srp 2007, 14:37
Profil
Master Sergant
Master Sergant

Registrován: 14 črc 2007, 19:29
Příspěvky: 129
Příspěvek Re: V tajné službě Jejího veličenstva (1969)

V tajné službě Jejího Veličenstva / On Her Majesty's Secret Service (1969)

Re: V tajné službě Jejího veličenstva (1969)

Info:
Jen registrovaní uživatelé mohou vidět odkazy v code. Přihlaste se nebo zaregistrujte ZDARMA.


Parametry:

Typ: DVDrip
Formát: AVI
Kodek: DivX
Velikost: 1,26 GB
Rozlišení: 720x400
Trvání: 02:16:21 hodin
Jazyk: CZ


Download:
Jen registrovaní uživatelé mohou vidět odkazy v code. Přihlaste se nebo zaregistrujte ZDARMA.


07 říj 2008, 19:15
Profil
Master Sergant
Master Sergant

Registrován: 08 úno 2011, 19:04
Příspěvky: 123
Příspěvek Re: V tajné službě Jejího veličenstva (1969)

Ve službách Jejího veličenstva (1969)

Re: V tajné službě Jejího veličenstva (1969) Re: V tajné službě Jejího veličenstva (1969)

Csfd:
Jen registrovaní uživatelé mohou vidět odkazy v code. Přihlaste se nebo zaregistrujte ZDARMA.

: aktuálně 68%

Ernst Blofeld připravuje ve svém ústavu vysoko v Alpách ďábelský plán, který může být osudný pro celý svět. Podařilo se mu totiž vyvinout smrtelně nebezpečný virus a chce jej rozšířit po celé Zemi prostřednictvím mladých dívek, které již pro tento úkol shromáždil v nepřístupné laboratoři. Do Švýcarska se však vydává James Bond. Na Blofeldovu stopu se dostal díky Dracovi. Tento mafián má totiž oprávněné obavy o svoji dceru Tracy, a tak pro ni získá společnost agenta 007. Tracy samozřejmě kouzlu Jamese Bonda neodolá, ale ani agenta 007 tajné služby nečeká pouhý flirt.

Jazyk: CZ
Typ souboru: .avi
Bitrate: 881 Kbps
Duration: 6600.0 s
Size: 805 MB
Overhead: 2,1%

Video: XVID
Bitrate: 744 Kbps
Resolution: 608x256
Frame Rate: 25.OO FPS

Re: V tajné službě Jejího veličenstva (1969)

Jen registrovaní uživatelé mohou vidět odkazy v code. Přihlaste se nebo zaregistrujte ZDARMA.


Pass:
No!

Nebo pro stažení celé kolekce všech 23dílů (1962-2008):

Re: V tajné službě Jejího veličenstva (1969) Re: V tajné službě Jejího veličenstva (1969)

Re: V tajné službě Jejího veličenstva (1969)

Jen registrovaní uživatelé mohou vidět odkazy v code. Přihlaste se nebo zaregistrujte ZDARMA.


Jen registrovaní uživatelé mohou vidět odkazy v code. Přihlaste se nebo zaregistrujte ZDARMA.


Pass:
No!


02 bře 2011, 22:28
Profil
Warman
Warman
Uživatelský avatar

Registrován: 25 lis 2008, 11:02
Příspěvky: 11367
Příspěvek Re: V tajné službě Jejího veličenstva (1969)

V tajné službě Jejího veličenstva
On Her Majesty's Secret Service (1969)

Re: V tajné službě Jejího veličenstva (1969)
AKTUÁLNĚ - 68%
Re: V tajné službě Jejího veličenstva (1969)
Jen registrovaní uživatelé mohou vidět odkazy v code. Přihlaste se nebo zaregistrujte ZDARMA.

Citace:
Obsah:
Akční / Romantický / Dobrodružný / Thriller

Velká Británie / USA, 1969, 140 min
Režie: Peter R. Hunt
Hrají: George Lazenby, Diana Rigg, Telly Savalas, Gabriele Ferzetti, Lois Maxwell, George Baker, Bernard Lee, Desmond Llewelyn, Sally Sheridan, Joanna Lumley, Jenny Hanley, Bessie Love, Peter R. Hunt


Ernst Blofeld připravuje ve svém ústavu vysoko v Alpách ďábelský plán, který může být osudný pro celý svět. Podařilo se mu totiž vyvinout smrtelně nebezpečný virus a chce jej rozšířit po celé Zemi prostřednictvím mladých dívek, které již pro tento úkol shromáždil v nepřístupné laboratoři. Do Švýcarska se však vydává James Bond. Na Blofeldovu stopu se dostal díky Dracovi. Tento mafián má totiž oprávněné obavy o svoji dceru Tracy, a tak pro ni získá společnost agenta 007. Tracy samozřejmě kouzlu Jamese Bonda neodolá, ale ani agenta 007 tajné služby nečeká pouhý flirt.

Re: V tajné službě Jejího veličenstva (1969)

Re: V tajné službě Jejího veličenstva (1969)
Citace:
General
Complete name : Z:\DVD UPLOAD\V tajné službě Jejího veličenstva (1969).avi
Format : AVI
Format/Info : Audio Video Interleave
File size : 1.26 GiB
Duration : 2h 16mn
Overall bit rate : 1 327 Kbps
Writing library : VirtualDub build 24469/release

Video
ID : 0
Format : MPEG-4 Visual
Format settings, BVOP : Yes
Format settings, QPel : No
Format settings, GMC : No warppoints
Format settings, Matrix : Default (H.263)
Muxing mode : Packed bitstream
Codec ID : DX50
Codec ID/Hint : DivX 5
Duration : 2h 16mn
Bit rate : 1 189 Kbps
Width : 720 pixels
Height : 400 pixels
Display aspect ratio : 16:9
Frame rate : 25.000 fps
Color space : YUV
Chroma subsampling : 4:2:0
Bit depth : 8 bits
Scan type : Progressive
Bits/(Pixel*Frame) : 0.165
Stream size : 1.13 GiB (90%)
Writing library : DivX 6.2.5 (UTC 2006-07)

Audio
ID : 1
Format : MPEG Audio
Format version : Version 1
Format profile : Layer 3
Codec ID : 55
Codec ID/Hint : MP3
Duration : 2h 16mn
Bit rate mode : Constant
Bit rate : 128 Kbps
Channel(s) : 2 channels
Sampling rate : 44.1 KHz
Video delay : 26ms
Stream size : 125 MiB (10%)
Alignment : Split accross interleaves
Interleave, duration : 40 ms (1.00 video frame)
Interleave, preload duration : 500 ms


Re: V tajné službě Jejího veličenstva (1969)
Jen registrovaní uživatelé mohou vidět odkazy v code. Přihlaste se nebo zaregistrujte ZDARMA.


Bez hesla
Přidán záznam na opravu dat 5%


10 kvě 2011, 18:38
Profil
Private 1 st class
Private 1 st class

Registrován: 25 čer 2007, 08:54
Příspěvky: 35
Příspěvek Re: V tajné službě Jejího veličenstva (1969)

= JAMES BOND = 1969
- V tajné službě Jejího Veličenstva -
- On Her Majesty's Secret Service -


Re: V tajné službě Jejího veličenstva (1969)


Citace:
http://www.csfd.cz/film/36337-v-tajne-sluzbe-jejiho-velicenstva/



Akční / Romantický / Dobrodružný / Thriller
Velká Británie / USA, 1969, 140 min


Režie: Peter R. Hunt
Hudba: John Barry
Hrají: George Lazenby, Diana Rigg, Telly Savalas, Gabriele Ferzetti, Lois Maxwell, George Baker, Bernard Lee, Desmond Llewelyn, Sally Sheridan, Joanna Lumley, Jenny Hanley, Bessie Love, Peter R. Hunt


Jazyk CZ

Video
Rozlišení: 720x404
Kodek: ffodivx
bitrate: 1.49 Mbps

Audio
Kodek: mp3
bitrate: 192 kbps
Kanály: 2



= HELLSHARE =

Jen registrovaní uživatelé mohou vidět odkazy v code. Přihlaste se nebo zaregistrujte ZDARMA.


= ULOŽTO =

Jen registrovaní uživatelé mohou vidět odkazy v code. Přihlaste se nebo zaregistrujte ZDARMA.


16 zář 2012, 22:31
Profil
Zobrazit příspěvky za předchozí:  Seřadit podle  
Odeslat nové téma Odpovědět na téma  [ Příspěvků: 5 ] 

Všechny časy jsou v UTC + 1 hodina


Nemůžete zakládat nová témata v tomto fóru
Nemůžete odpovídat v tomto fóru
Nemůžete upravovat své příspěvky v tomto fóru
Nemůžete mazat své příspěvky v tomto fóru
Nemůžete přikládat soubory v tomto fóru









StahovaniZaSMS Pizza Modena MP3 free download