fastshare
Životy těch druhých / Das Leben der Anderen (2006)
Vypnout statistiky
KATEGORIEPOSLEDNÍ PŘÍSPĚVKYPOSLEDNÍ OZNÁMENÍSTATISTIKY UŽIVATELE
Nick: Anonymous
Příspěvků: 2287
Hodnost: Warman
Varování: 0
---
Právě je 24 kvě 2022, 06:30





Všechny časy jsou v UTC + 1 hodina


Pravidla fóra







Odeslat nové téma Odpovědět na téma  [ Příspěvků: 11 ] 
 Životy těch druhých / Das Leben der Anderen (2006) 
Autor Zpráva
Private
Private

Registrován: 13 kvě 2007, 05:20
Příspěvky: 3
Příspěvek Životy těch druhých / Das Leben der Anderen (2006)

...


Naposledy upravil matysekUL dne 08 dub 2011, 08:56, celkově upraveno 1

18 čer 2007, 19:10
Profil
V.I.P.
V.I.P.
Uživatelský avatar

Registrován: 30 srp 2006, 08:57
Příspěvky: 1565
Bydliště: Warcenter
Příspěvek Životy těch druhých / Das Leben der Anderen (2006)


    Životy těch druhých

    Životy těch druhých / Das Leben der Anderen (2006)
Jen registrovaní uživatelé mohou vidět odkazy v code. Přihlaste se nebo zaregistrujte ZDARMA.

Jen registrovaní uživatelé mohou vidět odkazy v code. Přihlaste se nebo zaregistrujte ZDARMA.


_________________


20 čer 2007, 08:50
Profil
Corporal
Corporal

Registrován: 22 zář 2008, 17:41
Příspěvky: 59
Příspěvek Re: Životy těch druhých / Das Leben der Anderen (2006)

Životy těch druhých



LINKY:
Jen registrovaní uživatelé mohou vidět odkazy v code. Přihlaste se nebo zaregistrujte ZDARMA.


Heslo:
Jen registrovaní uživatelé mohou vidět odkazy v code. Přihlaste se nebo zaregistrujte ZDARMA.


02 říj 2008, 20:15
Profil
Private
Private

Registrován: 12 črc 2008, 06:19
Příspěvky: 4
Příspěvek Re: Životy těch druhých / Das Leben der Anderen (2006)

nebyl by hellshare, nebo ulož.to?


12 kvě 2009, 07:06
Profil
Private
Private

Registrován: 12 kvě 2009, 09:22
Příspěvky: 1
Příspěvek Re: Životy těch druhých / Das Leben der Anderen (2006)

Přikláním se k czshare, bagruj nebo uloz.to.


13 kvě 2009, 19:40
Profil
Private 1 st class
Private 1 st class
Uživatelský avatar

Registrován: 14 dub 2007, 10:23
Příspěvky: 19
Příspěvek Re: Životy těch druhých / Das Leben der Anderen (2006)

2 nerez
O5 dík.

_________________
Carpe Diem

Bohužel nemám kloudnou UpLine, tedy NeUploaduji.
Vyhledám linky, k nim překlady titulků, ... to jo.


28 bře 2010, 03:34
Profil
Captain
Captain
Uživatelský avatar

Registrován: 04 říj 2008, 11:10
Příspěvky: 260
Příspěvek Re: Životy těch druhých / Das Leben der Anderen (2006)

Re: Životy těch druhých / Das Leben der Anderen (2006)
Re: Životy těch druhých / Das Leben der Anderen (2006)

Re: Životy těch druhých / Das Leben der Anderen (2006)
Jen registrovaní uživatelé mohou vidět odkazy v code. Přihlaste se nebo zaregistrujte ZDARMA.


Re: Životy těch druhých / Das Leben der Anderen (2006)

Format : AVI
Format/Info : Audio Video Interleave
Format profile : OpenDML
File size : 2.17 GiB
Duration : 2h 12mn
Overall bit rate : 2 346 Kbps
Writing application : VirtualDubMod 1.5.10.1 (build 2439/release)
Writing library : VirtualDubMod build 2439/release

Video
ID : 0
Format : MPEG-4 Visual
Format profile : Advanced [email protected]
Format settings, BVOP : Yes
Format settings, QPel : No
Format settings, GMC : No warppoints
Format settings, Matrix : Custom
Codec ID : XVID
Codec ID/Hint : XviD
Duration : 2h 12mn
Bit rate : 1 796 Kbps
Width : 720 pixels
Height : 304 pixels
Display aspect ratio : 2.35:1
Frame rate : 25.000 fps
Original frame rate : 24.000 fps
Color space : YUV
Chroma subsampling : 4:2:0
Bit depth : 8 bits
Scan type : Progressive
Bits/(Pixel*Frame) : 0.328
Stream size : 1.66 GiB (77%)
Writing library : XviD 1.2.1 (UTC 2008-12-04)

Audio
ID : 1
Format : AC-3
Format/Info : Audio Coding 3
Mode extension : CM (complete main)
Codec ID : 2000
Duration : 2h 11mn
Bit rate mode : Constant
Bit rate : 448 Kbps
Channel(s) : 6 channels
Channel positions : Front: L C R, Side: L R, LFE
Sampling rate : 48.0 KHz
Bit depth : 16 bits
Stream size : 420 MiB (19%)
Alignment : Split accross interleaves



Re: Životy těch druhých / Das Leben der Anderen (2006)
Re: Životy těch druhých / Das Leben der Anderen (2006)
Jen registrovaní uživatelé mohou vidět odkazy v code. Přihlaste se nebo zaregistrujte ZDARMA.


Re: Životy těch druhých / Das Leben der Anderen (2006)
Linky jsou kombinovatelné !!
Pokud bude váš part poškozen, prosím stáhněte ho znova !!
Vše je baleno v programu WinRar, Takže to rozbalte přez WinRar. !!
Všechny mé uploady doporučuji stahovat přez JDownloader !!
Co jse časem smaže možná obnovím !!
Za Power Uploaders pro Vás nahrál Wiperko


11 lis 2010, 16:10
Profil
Private 1 st class
Private 1 st class

Registrován: 24 led 2011, 21:43
Příspěvky: 19
Příspěvek Životy těch druhých 2006

Životy těch druhých 2006
__.__
Drama / Thriller
Německo, 2006, 137 min

Režie: Florian Henckel von Donnersmarck
Hrají: Ulrich Mühe, Sebastian Koch, Martina Gedeck, Ulrich Tukur, Martin Brambach, Herbert Knaup, Werner Daehn

OBSAH
Rok 1984. Do pádu obávaného režimu ve Východním Německu zbývá necelých šest let. Vládnoucí Jednotná socialistická strana upevňuje svou pozici pomocí nemilosrdného systému monitorování a manipulace s potenciálně nebezpečnými lidmi, k čemuž využívá tajnou policii Stasi. Věrný stoupenec režimu, kapitán Gerd Wiesler (Ulrich Mühe), se ve snaze o kariérní postup pustí do shromažďování kompromitujících důkazů proti známému divadelnímu dramatikovi Georgi Dreymanovi (Sebastian Koch) a jeho atraktivní přítelkyni Christě-Marii Sieland (Martina Gedeck), která krátce předtím učarovala mocnému ministrovi kultury (Thomas Thieme). Jakmile se však do světa dvou divadelních hvězd ponoří, začne být jejich životy fascinován a uvědomí si omezenost své vlastní existence.
)..(
Jen registrovaní uživatelé mohou vidět odkazy v code. Přihlaste se nebo zaregistrujte ZDARMA.

:--:
Jen registrovaní uživatelé mohou vidět odkazy v code. Přihlaste se nebo zaregistrujte ZDARMA.


04 dub 2011, 20:52
Profil
Captain
Captain

Registrován: 24 kvě 2009, 18:44
Příspěvky: 297
Příspěvek Re: Životy těch druhých / Das Leben der Anderen (2006)

Životy těch druhých / Leben der Anderen (2006)
Film oceněný Oskarem za rok 2007 – Zahraniční film

Re: Životy těch druhých / Das Leben der Anderen (2006) Re: Životy těch druhých / Das Leben der Anderen (2006) Re: Životy těch druhých / Das Leben der Anderen (2006)

Csfd:
Jen registrovaní uživatelé mohou vidět odkazy v code. Přihlaste se nebo zaregistrujte ZDARMA.

: aktuálně 87%

Rok 1984. Do pádu obávaného režimu ve Východním Německu zbývá necelých šest let. Vládnoucí Jednotná socialistická strana upevňuje svou pozici pomocí nemilosrdného systému monitorování a manipulace s potenciálně nebezpečnými lidmi, k čemuž využívá tajnou policii Stasi. Věrný stoupenec režimu, kapitán Gerd Wiesler (Ulrich Mühe), se ve snaze o kariérní postup pustí do shromažďování kompromitujících důkazů proti známému divadelnímu dramatikovi Georgi Dreymanovi (Sebastian Koch) a jeho atraktivní přítelkyni Christě-Marii Sieland (Martina Gedeck), která krátce předtím učarovala mocnému ministrovi kultury (Thomas Thieme). Jakmile se však do světa dvou divadelních hvězd ponoří, začne být jejich životy fascinován a uvědomí si omezenost své vlastní existence.

Jazyk: CZ
Typ souboru: .avi
Bitrate: 881 Kbps
Duration: 6600.0 s
Size: 700 MB
Overhead: 2,1%

Video: XVID
Bitrate: 744 Kbps
Resolution: 608x256
Frame Rate: 25.OO FPS

Re: Životy těch druhých / Das Leben der Anderen (2006)

Jen registrovaní uživatelé mohou vidět odkazy v code. Přihlaste se nebo zaregistrujte ZDARMA.


Re: Životy těch druhých / Das Leben der Anderen (2006)

Jen registrovaní uživatelé mohou vidět odkazy v code. Přihlaste se nebo zaregistrujte ZDARMA.


Pass:
No!


23 črc 2011, 23:48
Profil
Warman
Warman

Registrován: 16 črc 2011, 10:59
Příspěvky: 1150
Příspěvek Re: Životy těch druhých / Das Leben der Anderen (2006)


Životy těch druhých (2006)


Das.Leben.der.Anderen.2006.DVDrip.XviD.AC3.CZ-Starcross


Re: Životy těch druhých / Das Leben der Anderen (2006)

Jen registrovaní uživatelé mohou vidět odkazy v code. Přihlaste se nebo zaregistrujte ZDARMA.

Jazyk: 5.1 CZ
Titulky: Ne
Kdy a kde: Německo, 2006
Délka: 131 min.
Žánr: Drama / Thriller

720:304; 2,35:1
XviD, Celkový BitRate: 1 835 Kbps
AC3, 6 kanály, 448 Kbps
25,000 fps, 48 Khz
1,69 GB


Re: Životy těch druhých / Das Leben der Anderen (2006)

Rok 1984. Do pádu obávaného režimu ve Východním Německu zbývá necelých šest let. Vládnoucí Jednotná socialistická strana upevňuje svou pozici pomocí nemilosrdného systému monitorování a manipulace s potenciálně nebezpečnými lidmi, k čemuž využívá tajnou policii Stasi. Věrný stoupenec režimu, kapitán Gerd Wiesler (Ulrich Mühe), se ve snaze o kariérní postup pustí do shromažďování kompromitujících důkazů proti známému divadelnímu dramatikovi Georgi Dreymanovi (Sebastian Koch) a jeho atraktivní přítelkyni Christě-Marii Sieland (Martina Gedeck), která krátce předtím učarovala mocnému ministrovi kultury (Thomas Thieme). Jakmile se však do světa dvou divadelních hvězd ponoří, začne být jejich životy fascinován a uvědomí si omezenost své vlastní existence.

euroshare:
Jen registrovaní uživatelé mohou vidět odkazy v code. Přihlaste se nebo zaregistrujte ZDARMA.

share-rapid:
Jen registrovaní uživatelé mohou vidět odkazy v code. Přihlaste se nebo zaregistrujte ZDARMA.


20 črc 2012, 09:19
Profil
Colonel 4 th class
Colonel 4 th class

Registrován: 30 pro 2007, 17:16
Příspěvky: 584
Příspěvek Re: Životy těch druhých / Das Leben der Anderen (2006)

Životy těch druhých / Leben der Anderen, Das (2006)
DVDRip CZ

Re: Životy těch druhých / Das Leben der Anderen (2006)

Jen registrovaní uživatelé mohou vidět odkazy v code. Přihlaste se nebo zaregistrujte ZDARMA.


Citace:
Format : AVI
Format/Info : Audio Video Interleave
Format profile : OpenDML
File size : 1.24 GiB
Duration : 2h 11mn
Overall bit rate : 1 342 Kbps

Video
ID : 0
Format : xvid
Codec ID : xvid
Duration : 2h 11mn
Bit rate : 1 199 Kbps
Width : 640 pixels
Height : 370 pixels
Display aspect ratio : 1.730
Frame rate : 25.000 fps
Bits/(Pixel*Frame) : 0.203
Stream size : 1.11 GiB (89%)

Audio
ID : 1
Format : MPEG Audio
Format version : Version 1
Format profile : Layer 3
Mode : Joint stereo
Mode extension : MS Stereo
Codec ID : 55
Codec ID/Hint : MP3
Duration : 2h 11mn
Bit rate mode : Constant
Bit rate : 128 Kbps
Channel(s) : 2 channels
Sampling rate : 48.0 KHz
Compression mode : Lossy
Stream size : 121 MiB (10%)
Alignment : Aligned on interleaves
Interleave, duration : 24 ms (0.60 video frame)


Fastshare
Jen registrovaní uživatelé mohou vidět odkazy v code. Přihlaste se nebo zaregistrujte ZDARMA.


24 lis 2013, 23:09
Profil
Zobrazit příspěvky za předchozí:  Seřadit podle  
Odeslat nové téma Odpovědět na téma  [ Příspěvků: 11 ] 

Všechny časy jsou v UTC + 1 hodina


Nemůžete zakládat nová témata v tomto fóru
Nemůžete odpovídat v tomto fóru
Nemůžete upravovat své příspěvky v tomto fóru
Nemůžete mazat své příspěvky v tomto fóru
Nemůžete přikládat soubory v tomto fóru









StahovaniZaSMS Pizza Modena MP3 free download