fastshare
Řidičák / License to Drive (1988)
Vypnout statistiky
KATEGORIEPOSLEDNÍ PŘÍSPĚVKYPOSLEDNÍ OZNÁMENÍSTATISTIKY UŽIVATELE
Nick: Anonymous
Příspěvků: 2287
Hodnost: Warman
Varování: 0
---
Právě je 24 kvě 2022, 07:15





Všechny časy jsou v UTC + 1 hodina


Pravidla fóra







Odeslat nové téma Odpovědět na téma  [ Příspěvků: 4 ] 
 Řidičák / License to Drive (1988) 
Autor Zpráva
V.I.P.
V.I.P.
Uživatelský avatar

Registrován: 30 srp 2006, 08:57
Příspěvky: 1565
Bydliště: Warcenter
Příspěvek Řidičák / License to Drive (1988)


    Řidičák

    Řidičák / License to Drive (1988)
Jen registrovaní uživatelé mohou vidět odkazy v code. Přihlaste se nebo zaregistrujte ZDARMA.

Jen registrovaní uživatelé mohou vidět odkazy v code. Přihlaste se nebo zaregistrujte ZDARMA.


_________________


09 čer 2007, 11:36
Profil
Master Sergant
Master Sergant

Registrován: 25 pro 2007, 17:11
Příspěvky: 144
Příspěvek Re: Řidičák / License to Drive (1988)

Řidičák / License to Drive (1988)

Info:
CSFD: 64%
Jen registrovaní uživatelé mohou vidět odkazy v code. Přihlaste se nebo zaregistrujte ZDARMA.


DVD RIP

Formát : AVI
Velikost souboru : 924 MiB
Duration/String : 1h 29mn

Video
Formát : MPEG-4 Visual
CodecID : DivX 5
Bit rate : 1 300 Kbps
Šířka : 720pixely
Výška : 400pixely

Poměr stran : 16/9
Frame rate : 23,976 fps

Audio
Formát : MPEG Audio
CodecID : MP3
Bit rate : 128 Kbps
Kanál(y) : 2 kanály
Sampling rate : 48,0 KHz

)..(
Jen registrovaní uživatelé mohou vidět odkazy v code. Přihlaste se nebo zaregistrujte ZDARMA.

:--:
klokan


10 kvě 2009, 16:49
Profil
Warman
Warman
Uživatelský avatar

Registrován: 25 lis 2008, 11:02
Příspěvky: 11367
Příspěvek Re: Řidičák / License to Drive (1988)

Řidičák
License to Drive (1988)

Re: Řidičák / License to Drive (1988)
AKTUÁLNĚ - 63%
Re: Řidičák / License to Drive (1988)
Jen registrovaní uživatelé mohou vidět odkazy v code. Přihlaste se nebo zaregistrujte ZDARMA.

Citace:
Obsah:
Komedie

USA, 1988, 88 min
Režie: Greg Beeman
Hrají: Corey Haim, Corey Feldman, Carol Kane, Richard Masur, Heather Graham, Harvey Miller, Michael A. Nickles, Nina Siemaszko, Grant Heslov, R.A. Mihailoff, Michael Manasseri, Parley Baer


Bláznivá komedie, vyrobená podle osvědčených postupů, je určená zejména těm -náctiletým, neboť je o všem, o čem právě oni sní. Jejím hrdinou je šestnáctiletý Les Anderson, toužící po řidičském průkazu a pozornosti spolužačky Mercedes. Je přesvědčen, že nezíská-li jednu, nemá šanci získat ani to druhé. A protože jej teoretická část autoškoly příliš nebaví, není divu, že u zkoušek proletí, přestože při jízdách instruktora překvapí svými řidičskými dovednostmi. Stydí se však neúspěch u zkoušek přiznat a tak jej zatají před rodiči i před spolužáky. A vlečen událostmi vypůjčí si tajně dědečkův pečlivě opatrovaný cadillac, aby se mohl s kamarády vydat na plánovanou projížďku. Ta však skončí úplně jinak, než si Les vůbec dokázal představit.

Re: Řidičák / License to Drive (1988)

Re: Řidičák / License to Drive (1988)
Citace:
General
Complete name : Z:\DVD UPLOAD\Ridičák (1988).avi
Format : AVI
Format/Info : Audio Video Interleave
File size : 698 MiB
Duration : 1h 29mn
Overall bit rate : 1 087 Kbps
Movie name : LICENSE TO DRIVE.Title1.DVDRip
Director : Lukyn
Writing application : VirtualDubMod 1.5.10.2 (build 2540/release)
Writing library : VirtualDubMod build 2540/release
Original source form/Name : LICENSE TO DRIVE

Video
ID : 0
Format : MPEG-4 Visual
Format profile : [email protected]
Format settings, BVOP : No
Format settings, QPel : No
Format settings, GMC : No warppoints
Format settings, Matrix : Default (H.263)
Codec ID : XVID
Codec ID/Hint : XviD
Duration : 1h 29mn
Bit rate : 885 Kbps
Width : 576 pixels
Height : 320 pixels
Display aspect ratio : 16:9
Frame rate : 25.000 fps
Color space : YUV
Chroma subsampling : 4:2:0
Bit depth : 8 bits
Scan type : Progressive
Bits/(Pixel*Frame) : 0.192
Stream size : 568 MiB (81%)
Writing library : XviD 1.1.2 (UTC 2006-11-01)

Audio
ID : 1
Format : MPEG Audio
Format version : Version 1
Format profile : Layer 3
Mode : Joint stereo
Mode extension : MS Stereo
Codec ID : 55
Codec ID/Hint : MP3
Duration : 1h 29mn
Bit rate mode : Constant
Bit rate : 192 Kbps
Channel(s) : 2 channels
Sampling rate : 44.1 KHz
Stream size : 123 MiB (18%)
Alignment : Split accross interleaves
Interleave, duration : 40 ms (1.00 video frame)
Interleave, preload duration : 500 ms
Writing library : LAME3.96r
Encoding settings : -m j -V 4 -q 2 -lowpass 19.5 -b 192


Re: Řidičák / License to Drive (1988)
Jen registrovaní uživatelé mohou vidět odkazy v code. Přihlaste se nebo zaregistrujte ZDARMA.


Bez hesla
Přidán záznam na opravu dat 5%


18 čer 2011, 15:11
Profil
Warman
Warman
Uživatelský avatar

Registrován: 25 lis 2008, 11:02
Příspěvky: 11367
Příspěvek Re: Řidičák / License to Drive (1988)

Re: Řidičák / License to Drive (1988)

Re: Řidičák / License to Drive (1988)
Jen registrovaní uživatelé mohou vidět odkazy v code. Přihlaste se nebo zaregistrujte ZDARMA.

Citace:
Obsah:
Komedie

USA, 1988, 88 min
Režie: Greg Beeman
Hrají: Corey Haim, Corey Feldman, Carol Kane, Richard Masur, Heather Graham, Harvey Miller, Michael A. Nickles, Nina Siemaszko, Grant Heslov, R.A. Mihailoff, Michael Manasseri, Parley Baer

Bláznivá komedie, vyrobená podle osvědčených postupů, je určená zejména těm -náctiletým, neboť je o všem, o čem právě oni sní. Jejím hrdinou je šestnáctiletý Les Anderson, toužící po řidičském průkazu a pozornosti spolužačky Mercedes. Je přesvědčen, že nezíská-li jednu, nemá šanci získat ani to druhé. A protože jej teoretická část autoškoly příliš nebaví, není divu, že u zkoušek proletí, přestože při jízdách instruktora překvapí svými řidičskými dovednostmi. Stydí se však neúspěch u zkoušek přiznat a tak jej zatají před rodiči i před spolužáky. A vlečen událostmi vypůjčí si tajně dědečkův pečlivě opatrovaný cadillac, aby se mohl s kamarády vydat na plánovanou projížďku. Ta však skončí úplně jinak, než si Les vůbec dokázal představit.

Re: Řidičák / License to Drive (1988)

INFO:
General : D:\AVI\Ridičák (1988) DVDRipCZ.avi
Format : AVI at 1 087 Kbps
Length : 698 MiB for 1h 29mn 46s 400ms
Video #0 : MPEG-4 Visual at 885 Kbps
Aspect : 576 x 320 (1.800) at 25.000 fps
Audio #0 : MPEG Audio at 192 Kbps
Infos : 2 channels, 44.1 KHz

Re: Řidičák / License to Drive (1988)
Jen registrovaní uživatelé mohou vidět odkazy v code. Přihlaste se nebo zaregistrujte ZDARMA.


16 bře 2012, 19:33
Profil
Zobrazit příspěvky za předchozí:  Seřadit podle  
Odeslat nové téma Odpovědět na téma  [ Příspěvků: 4 ] 

Všechny časy jsou v UTC + 1 hodina


Nemůžete zakládat nová témata v tomto fóru
Nemůžete odpovídat v tomto fóru
Nemůžete upravovat své příspěvky v tomto fóru
Nemůžete mazat své příspěvky v tomto fóru
Nemůžete přikládat soubory v tomto fóru









StahovaniZaSMS Pizza Modena MP3 free download