fastshare
Zbožňuju prachy! / Friends with Money (2006)
Vypnout statistiky
KATEGORIEPOSLEDNÍ PŘÍSPĚVKYPOSLEDNÍ OZNÁMENÍSTATISTIKY UŽIVATELE
Nick: Anonymous
Příspěvků: 2287
Hodnost: Warman
Varování: 0
---
Právě je 24 kvě 2022, 07:33





Všechny časy jsou v UTC + 1 hodina


Pravidla fóra







Odeslat nové téma Odpovědět na téma  [ Příspěvků: 11 ] 
 Zbožňuju prachy! / Friends with Money (2006) 
Autor Zpráva
Private
Private

Registrován: 26 pro 2006, 10:54
Příspěvky: 12
Příspěvek Zbožňuju prachy! / Friends with Money (2006)

Jen registrovaní uživatelé mohou vidět odkazy v code. Přihlaste se nebo zaregistrujte ZDARMA.


Kvalita:
Jen registrovaní uživatelé mohou vidět odkazy v code. Přihlaste se nebo zaregistrujte ZDARMA.


Info:
Jen registrovaní uživatelé mohou vidět odkazy v code. Přihlaste se nebo zaregistrujte ZDARMA.


01 kvě 2007, 12:27
Profil
V.I.P.
V.I.P.
Uživatelský avatar

Registrován: 30 srp 2006, 08:57
Příspěvky: 1565
Bydliště: Warcenter
Příspěvek Zbožňuju prachy! / Friends with Money (2006)


    Zbožňuju prachy! / Friends with Money (2006)

    Zbožňuju prachy! / Friends with Money (2006)

    Zbožňuju prachy! / Friends with Money (2006)

Jen registrovaní uživatelé mohou vidět odkazy v code. Přihlaste se nebo zaregistrujte ZDARMA.

Jen registrovaní uživatelé mohou vidět odkazy v code. Přihlaste se nebo zaregistrujte ZDARMA.


_________________


15 kvě 2007, 08:05
Profil
Private
Private

Registrován: 12 úno 2007, 09:36
Příspěvky: 10
Příspěvek Zbožňuju prachy! / Friends with Money (2006)

Zbožňuju prachy! / Friends with Money (2006) - DVDRip

Zbožňuju prachy! / Friends with Money (2006)

Zbožňuju prachy! / Friends with Money (2006)

Zbožňuju prachy! / Friends with Money (2006)

Zbožňuju prachy! / Friends with Money (2006)

Česko-Slovenská filmová databáze:

Jen registrovaní uživatelé mohou vidět odkazy v code. Přihlaste se nebo zaregistrujte ZDARMA.


Internet Movie Database:

Jen registrovaní uživatelé mohou vidět odkazy v code. Přihlaste se nebo zaregistrujte ZDARMA.


Rozlišení: 640x256
Zvuk: 48000hz, 16bps, 2ch
Délka: 1:24:04
Bitrate: 1159kbps
Velikost: 697 MB


Jen registrovaní uživatelé mohou vidět odkazy v code. Přihlaste se nebo zaregistrujte ZDARMA.


Zbožňuju prachy! / Friends with Money (2006)

Illmatic


15 kvě 2007, 14:51
Profil
Corporal
Corporal

Registrován: 21 led 2009, 21:47
Příspěvky: 61
Příspěvek Zbožňuju prachy! / Friends with Money (2006)

Zbožňuju prachy! / Friends with Money (2006) cz dabing (kiss_cz)
Komedie / Drama / Romantický
USA, 2006
Zbožňuju prachy! / Friends with Money (2006)
Zbožňuju prachy! / Friends with Money (2006)

Zbožňuju prachy! / Friends with Money (2006)
Příběh čtyř kamarádek, jejichž spokojený život ztrácí rovnováhu, když na dveře zaklepou první problémy středního věku. Příběh je bolestně veselým obrazem života sociálně citlivé západní části Los Angeles.

Zbožňuju prachy! / Friends with Money (2006)
Režie: Nicole Holofcener
Hrají: Jennifer Aniston, Frances McDormand, Timm Sharp, Catherine Keener, Joan Cusack, Scott Caan, Ty Burrell, Greg Germann, Jason Isaacs, Kristin Minter, Bobby Coleman, Maulik Pancholy, Jake Cherry

Zbožňuju prachy! / Friends with Money (2006)
Jen registrovaní uživatelé mohou vidět odkazy v code. Přihlaste se nebo zaregistrujte ZDARMA.


Zbožňuju prachy! / Friends with Money (2006)
Jen registrovaní uživatelé mohou vidět odkazy v code. Přihlaste se nebo zaregistrujte ZDARMA.


Zbožňuju prachy! / Friends with Money (2006)
DVDRip 697MB
Video: Xvid 640x256 25.00fps 1021kbps [Video 0]

Zbožňuju prachy! / Friends with Money (2006)
Audio: MPEG Audio Layer 3 48000Hz stereo 128kbps [Audio 1]

Zbožňuju prachy! / Friends with Money (2006)
cca 88 minut

Zbožňuju prachy! / Friends with Money (2006)
Hellshare
Jen registrovaní uživatelé mohou vidět odkazy v code. Přihlaste se nebo zaregistrujte ZDARMA.


Zbožňuju prachy! / Friends with Money (2006)

Nefunkční linky hlaste pomocí PM, děkuji.


19 led 2010, 13:40
Profil
Private
Private

Registrován: 16 črc 2011, 07:45
Příspěvky: 5
Příspěvek Re: Zbožňuju prachy! / Friends with Money (2006)

Zbožňuju prachy! / Friends with Money (2006) CZ DVDRip


Formát : AVI
Velikost souboru : 697 MiB
Hrací čas : 1h 24mn
Bit rate : 1159 Kbps

Video #0

Hrací čas : 1h 24mn
Bit rate : 1008 Kbps
Šířka : 640pixely
Výška : 256pixely
Poměr stran : 2.500
Frame rate : 25.000 fps
Rozlišení : 8 bits

Audio #0
Profil kodeku : Joint stereo
Bit rate : 128 Kbps
Bit rate mode : CBR
Kanál(y) : 2 kanály
Sampling rate : 48 KHz
Rozlišení : 16 bits

HELLSHARE

Jen registrovaní uživatelé mohou vidět odkazy v code. Přihlaste se nebo zaregistrujte ZDARMA.


CZSHARE

Jen registrovaní uživatelé mohou vidět odkazy v code. Přihlaste se nebo zaregistrujte ZDARMA.


24 črc 2011, 15:38
Profil
Colonel 4 th class
Colonel 4 th class
Uživatelský avatar

Registrován: 27 dub 2008, 13:14
Příspěvky: 580
Příspěvek Re: Zbožňuju prachy! / Friends with Money (2006)

Release: Zboznuju.prachy.2006.DVDRip.XviD.CZ
Názov: Zbožňuju prachy! / Friends with Money (2006)

Re: Zbožňuju prachy! / Friends with Money (2006)

Re: Zbožňuju prachy! / Friends with Money (2006)
Jen registrovaní uživatelé mohou vidět odkazy v code. Přihlaste se nebo zaregistrujte ZDARMA.


Re: Zbožňuju prachy! / Friends with Money (2006)
    Dabing: Český
    Titulky: nie
    *********
    Žáner: Komedie / Drama / Romantický
    Krajina: USA
    Rok: 2006
    *********
    Réžia: Nicole Holofcener
    Hrajú: Jennifer Aniston, Frances McDormand, Timm Sharp, Catherine Keener, Joan Cusack, Scott Caan, Ty Burrell, Greg Germann, Jason Isaacs, Kristin Minter, Bobby Coleman, Maulik Pancholy, Jake Cherry, Marin Hinkle, Elizabeth Keener, John Srednicki

Re: Zbožňuju prachy! / Friends with Money (2006)
Jen registrovaní uživatelé mohou vidět odkazy v code. Přihlaste se nebo zaregistrujte ZDARMA.


Re: Zbožňuju prachy! / Friends with Money (2006)
Jen registrovaní uživatelé mohou vidět odkazy v code. Přihlaste se nebo zaregistrujte ZDARMA.

Jen registrovaní uživatelé mohou vidět odkazy v code. Přihlaste se nebo zaregistrujte ZDARMA.

Jen registrovaní uživatelé mohou vidět odkazy v code. Přihlaste se nebo zaregistrujte ZDARMA.

Jen registrovaní uživatelé mohou vidět odkazy v code. Přihlaste se nebo zaregistrujte ZDARMA.

Jen registrovaní uživatelé mohou vidět odkazy v code. Přihlaste se nebo zaregistrujte ZDARMA.

Jen registrovaní uživatelé mohou vidět odkazy v code. Přihlaste se nebo zaregistrujte ZDARMA.


Re: Zbožňuju prachy! / Friends with Money (2006)


20 zář 2011, 16:17
Profil
Colonel 5 th class
Colonel 5 th class

Registrován: 21 črc 2009, 11:51
Příspěvky: 718
Příspěvek Re: Zbožňuju prachy! / Friends with Money (2006)

Zbožňujem prachy ! / Friends with Money / 2006
Re: Zbožňuju prachy! / Friends with Money (2006)

Re: Zbožňuju prachy! / Friends with Money (2006)
Jen registrovaní uživatelé mohou vidět odkazy v code. Přihlaste se nebo zaregistrujte ZDARMA.



Re: Zbožňuju prachy! / Friends with Money (2006)
GENERAL DVDRip
Citace:
Format : AVI
Format/Info : Audio Video Interleave
File size : 697 MiB
Duration : 1h 24mn
Overall bit rate : 1 159 Kbps
Writing application : VirtualDubMod 1.5.10.2 (build 2540/release)
Writing library : VirtualDubMod build 2540/release

Video
ID : 0
Format : MPEG-4 Visual
Format profile : [email protected]
Format settings, BVOP : No
Format settings, QPel : No
Format settings, GMC : No warppoints
Format settings, Matrix : Default (H.263)
Codec ID : XVID
Codec ID/Hint : XviD
Duration : 1h 24mn
Bit rate : 976 Kbps
Width : 640 pixels
Height : 256 pixels
Display aspect ratio : 2.500
Frame rate : 25.000 fps
Color space : YUV
Chroma subsampling : 4:2:0
Bit depth : 8 bits
Scan type : Progressive
Compression mode : Lossy
Bits/(Pixel*Frame) : 0.238
Stream size : 587 MiB (84%)
Writing library : XviD 1.2.0SMP (UTC 2006-01-08)

Audio
ID : 1
Format : MPEG Audio
Format version : Version 1
Format profile : Layer 3
Mode : Joint stereo
Mode extension : MS Stereo
Codec ID : 55
Codec ID/Hint : MP3
Duration : 1h 24mn
Bit rate mode : Constant
Bit rate : 128 Kbps
Channel(s) : 2 channels
Sampling rate : 48.0 KHz
Compression mode : Lossy
Stream size : 77.0 MiB (11%)
Alignment : Aligned on interleaves




Re: Zbožňuju prachy! / Friends with Money (2006)
Jen registrovaní uživatelé mohou vidět odkazy v code. Přihlaste se nebo zaregistrujte ZDARMA.


Re: Zbožňuju prachy! / Friends with Money (2006)
Jen registrovaní uživatelé mohou vidět odkazy v code. Přihlaste se nebo zaregistrujte ZDARMA.


Re: Zbožňuju prachy! / Friends with Money (2006)
Jen registrovaní uživatelé mohou vidět odkazy v code. Přihlaste se nebo zaregistrujte ZDARMA.





Re: Zbožňuju prachy! / Friends with Money (2006)
Jen registrovaní uživatelé mohou vidět odkazy v code. Přihlaste se nebo zaregistrujte ZDARMA.



Re: Zbožňuju prachy! / Friends with Money (2006)
Jen registrovaní uživatelé mohou vidět odkazy v code. Přihlaste se nebo zaregistrujte ZDARMA.



Re: Zbožňuju prachy! / Friends with Money (2006)
Jen registrovaní uživatelé mohou vidět odkazy v code. Přihlaste se nebo zaregistrujte ZDARMA.



20 zář 2011, 16:58
Profil
Captain
Captain

Registrován: 12 bře 2010, 07:59
Příspěvky: 252
Příspěvek Re: Zbožňuju prachy! / Friends with Money (2006)

Zbožňuju prachy! / Friends with Money (2006)

Re: Zbožňuju prachy! / Friends with Money (2006)

Zboznuju.prachy.2006.DVDRip.XviD.CZ

Jen registrovaní uživatelé mohou vidět odkazy v code. Přihlaste se nebo zaregistrujte ZDARMA.


Komedie / Drama / Romantický
USA, 2006, 88 min


Režie:
Nicole Holofcener
Hrají:
Jennifer Aniston, Frances McDormand, Timm Sharp, Catherine Keener, Joan Cusack, Scott Caan, Ty Burrell, Greg Germann, Jason Isaacs, Kristin Minter, Bobby Coleman, Maulik Pancholy, Jake Cherry, Marin Hinkle, Elizabeth Keener, John Srednicki

Příběh čtyř kamarádek, jejichž spokojený život ztrácí rovnováhu, když na dveře zaklepou první problémy středního věku. Příběh je bolestně veselým obrazem života sociálně citlivé západní části Los Angeles.

FORMAT : AVI
CODEC : XviD
RESOLUTiON : 640 x 256
ViDEO : 976 Kbps
AUDiO : 128 Kbps MP3 2CH
LANGUAGE : Czech
SiZE : 697 MiB



Jen registrovaní uživatelé mohou vidět odkazy v code. Přihlaste se nebo zaregistrujte ZDARMA.

Jen registrovaní uživatelé mohou vidět odkazy v code. Přihlaste se nebo zaregistrujte ZDARMA.

Jen registrovaní uživatelé mohou vidět odkazy v code. Přihlaste se nebo zaregistrujte ZDARMA.

Jen registrovaní uživatelé mohou vidět odkazy v code. Přihlaste se nebo zaregistrujte ZDARMA.

Jen registrovaní uživatelé mohou vidět odkazy v code. Přihlaste se nebo zaregistrujte ZDARMA.

Jen registrovaní uživatelé mohou vidět odkazy v code. Přihlaste se nebo zaregistrujte ZDARMA.

Jen registrovaní uživatelé mohou vidět odkazy v code. Přihlaste se nebo zaregistrujte ZDARMA.



Bez hesla ..


20 zář 2011, 17:06
Profil
Uploader
Uploader
Uživatelský avatar

Registrován: 16 led 2010, 03:36
Příspěvky: 722
Příspěvek Re: Zbožňuju prachy! / Friends with Money (2006)

Zbožňuju prachy! / Friends with Money (2006)

Re: Zbožňuju prachy! / Friends with Money (2006)


Re: Zbožňuju prachy! / Friends with Money (2006)
Jen registrovaní uživatelé mohou vidět odkazy v code. Přihlaste se nebo zaregistrujte ZDARMA.

Re: Zbožňuju prachy! / Friends with Money (2006)

Komedie / Drama / Romantický
USA, 2006, 88 min

Příběh čtyř kamarádek, jejichž spokojený život ztrácí rovnováhu, když na dveře zaklepou první problémy středního věku. Příběh je bolestně veselým obrazem života sociálně citlivé západní části Los Angeles.


Jen registrovaní uživatelé mohou vidět odkazy v code. Přihlaste se nebo zaregistrujte ZDARMA.



Re: Zbožňuju prachy! / Friends with Money (2006)


Re: Zbožňuju prachy! / Friends with Money (2006)
Jen registrovaní uživatelé mohou vidět odkazy v code. Přihlaste se nebo zaregistrujte ZDARMA.

Re: Zbožňuju prachy! / Friends with Money (2006)
Jen registrovaní uživatelé mohou vidět odkazy v code. Přihlaste se nebo zaregistrujte ZDARMA.

Re: Zbožňuju prachy! / Friends with Money (2006)
Jen registrovaní uživatelé mohou vidět odkazy v code. Přihlaste se nebo zaregistrujte ZDARMA.

Re: Zbožňuju prachy! / Friends with Money (2006)
Jen registrovaní uživatelé mohou vidět odkazy v code. Přihlaste se nebo zaregistrujte ZDARMA.

Re: Zbožňuju prachy! / Friends with Money (2006)
Jen registrovaní uživatelé mohou vidět odkazy v code. Přihlaste se nebo zaregistrujte ZDARMA.

Re: Zbožňuju prachy! / Friends with Money (2006)
Jen registrovaní uživatelé mohou vidět odkazy v code. Přihlaste se nebo zaregistrujte ZDARMA.

Re: Zbožňuju prachy! / Friends with Money (2006)
Jen registrovaní uživatelé mohou vidět odkazy v code. Přihlaste se nebo zaregistrujte ZDARMA.



Re: Zbožňuju prachy! / Friends with Money (2006)

Citace:
V prípade problému ma vždy kontaktuje cez SS/PM !!
Moje uploady sú VŽDY balené programom WinRAR !!
Moje uploady sú VŽDY bez hesla!!
Tlačítko ďakujem alebo iné poďakovanie vždy poteší !!
Za Power Uploaders pre Vás nahral Delfin !!!


22 zář 2011, 18:13
Profil
Corporal
Corporal

Registrován: 03 srp 2009, 17:50
Příspěvky: 60
Příspěvek Re: Zbožňuju prachy! / Friends with Money (2006)

Zbožňuju prachy! Friends with Money (2006)
Re: Zbožňuju prachy! / Friends with Money (2006)
CSFD
Jen registrovaní uživatelé mohou vidět odkazy v code. Přihlaste se nebo zaregistrujte ZDARMA.

Re: Zbožňuju prachy! / Friends with Money (2006)
Jen registrovaní uživatelé mohou vidět odkazy v code. Přihlaste se nebo zaregistrujte ZDARMA.

Re: Zbožňuju prachy! / Friends with Money (2006)
Jen registrovaní uživatelé mohou vidět odkazy v code. Přihlaste se nebo zaregistrujte ZDARMA.

_________________
i_m_a_g_e


19 led 2012, 18:50
Profil
Master Sergant
Master Sergant

Registrován: 25 úno 2010, 15:09
Příspěvky: 149
Příspěvek Re: Zbožňuju prachy! / Friends with Money (2006)

Re: Zbožňuju prachy! / Friends with Money (2006)

http://www.csfd.cz/film/221783-zboznuju-prachy-friends-with-money/


Komedie / Drama / Romantický
USA, 2006, 88 min

Režie: Nicole Holofcener
Hrají: Jennifer Aniston, Frances McDormand, Timm Sharp, Catherine Keener, Joan Cusack, Scott Caan, Ty Burrell, Greg Germann, Jason Isaacs, Kristin Minter, Bobby Coleman, Maulik Pancholy

Příběh čtyř kamarádek, jejichž spokojený život ztrácí rovnováhu, když na dveře zaklepou první problémy středního věku. Příběh je bolestně veselým obrazem
života sociálně citlivé západní části Los Angeles. (oficiální text distributora)

Citace:
General
Complete name : C:\Documents and Settings\Joli\Dokumenty\Downloads\friends with money.avi
Format : AVI
Format/Info : Audio Video Interleave
File size : 697 MiB
Duration : 1h 24mn
Overall bit rate : 1 159 Kbps
Writing application : VirtualDubMod 1.5.10.2 (build 2540/release)
Writing library : VirtualDubMod build 2540/release

Video
ID : 0
Format : MPEG-4 Visual
Format profile : [email protected]
Format settings, BVOP : No
Format settings, QPel : No
Format settings, GMC : No warppoints
Format settings, Matrix : Default (H.263)
Codec ID : XVID
Codec ID/Hint : XviD
Duration : 1h 24mn
Bit rate : 1 021 Kbps
Width : 640 pixels
Height : 256 pixels
Display aspect ratio : 2.500
Frame rate : 25.000 fps
Color space : YUV
Chroma subsampling : 4:2:0
Bit depth : 8 bits
Scan type : Progressive
Compression mode : Lossy
Bits/(Pixel*Frame) : 0.249
Stream size : 614 MiB (88%)
Writing library : XviD 1.2.0SMP (UTC 2006-01-08)

Audio
ID : 1
Format : MPEG Audio
Format version : Version 1
Format profile : Layer 3
Mode : Joint stereo
Mode extension : MS Stereo
Codec ID : 55
Codec ID/Hint : MP3
Duration : 1h 24mn
Bit rate mode : Constant
Bit rate : 128 Kbps
Channel(s) : 2 channels
Sampling rate : 48.0 KHz
Compression mode : Lossy
Stream size : 77.0 MiB (11%)
Alignment : Aligned on interleaves
Interleave, duration : 40 ms (1.00 video frame)
Interleave, preload duration : 504 ms



Jen registrovaní uživatelé mohou vidět odkazy v code. Přihlaste se nebo zaregistrujte ZDARMA.


Jen registrovaní uživatelé mohou vidět odkazy v code. Přihlaste se nebo zaregistrujte ZDARMA.


Jen registrovaní uživatelé mohou vidět odkazy v code. Přihlaste se nebo zaregistrujte ZDARMA.


05 úno 2012, 22:52
Profil
Zobrazit příspěvky za předchozí:  Seřadit podle  
Odeslat nové téma Odpovědět na téma  [ Příspěvků: 11 ] 

Všechny časy jsou v UTC + 1 hodina


Nemůžete zakládat nová témata v tomto fóru
Nemůžete odpovídat v tomto fóru
Nemůžete upravovat své příspěvky v tomto fóru
Nemůžete mazat své příspěvky v tomto fóru
Nemůžete přikládat soubory v tomto fóru









StahovaniZaSMS Pizza Modena MP3 free download