fastshare
Pátý element / The Fifth Element (1997)
Vypnout statistiky
KATEGORIEPOSLEDNÍ PŘÍSPĚVKYPOSLEDNÍ OZNÁMENÍSTATISTIKY UŽIVATELE
Nick: Anonymous
Příspěvků: 2286
Hodnost: Warman
Varování: 0
---
Právě je 14 srp 2022, 02:15





Všechny časy jsou v UTC + 1 hodina


Pravidla fóra







Odeslat nové téma Odpovědět na téma  [ Příspěvků: 15 ] 
 Pátý element / The Fifth Element (1997) 
Autor Zpráva
V.I.P.
V.I.P.
Uživatelský avatar

Registrován: 30 čer 2007, 17:06
Příspěvky: 151
Příspěvek Pátý element / The Fifth Element (1997)

Pátý element / The Fifth Element (1997)

Pátý element / The Fifth Element (1997)

Jen registrovaní uživatelé mohou vidět odkazy v code. Přihlaste se nebo zaregistrujte ZDARMA.

Info:
DvDrip
Video: AVI - 112kbps - 25 snímkov/s, Rozlíšenie: 480x384,
Zvuk: MP3,
Trvanie: 1:56:39,
Veľkosť: 766 MB (803 514 368 bajtov)
Dabing: ÁNO, CZ.
Jen registrovaní uživatelé mohou vidět odkazy v code. Přihlaste se nebo zaregistrujte ZDARMA.


Naposledy upravil ladan dne 27 úno 2012, 13:06, celkově upraveno 2
Vložen obrázek k titulu


11 srp 2007, 20:46
Profil
Uploader
Uploader
Uživatelský avatar

Registrován: 21 čer 2008, 13:27
Příspěvky: 137
Příspěvek Re: Pátý element / The Fifth Element (1997)

ZDROJ:

OBRAZ: REMASTERED BLU-RAY 1080p
ZVUK: CZ DVD


Re: Pátý element / The Fifth Element (1997)
..__.__..
Vizuální žranice Luca Bessona není neprůstřelnou vizí budoucnosti, zato zahrnuje žánry komedie, sci-fi, romantického
filmu a pohádky pro dospělé - protože děj se točí okolo zla, které každých pět tisíc let hrozí zničit Zemi. Ve vzdálené
budoucnosti (patřičně barevné) se tomu lidstvo snaží zabránit pomocí kamenů, reprezentujících čtyři elementy: vodu,
vzduch, zemi a oheň. Pátým elementem je dívka Leelou, která spadne do taxíku Corbena Dallase. K jejich týmu,
zachraňujícímu svět, se brzy připojuje roztržitý kněz a výstřední černošský moderátor. Zlu ovšem také přibývá spojenec:
padoušský magnát Zorg.

CSFD:
Jen registrovaní uživatelé mohou vidět odkazy v code. Přihlaste se nebo zaregistrujte ZDARMA.


DABING:

V českém znění: Alexej Pyško (Korben Dallas), Pavel Trávníček (Zorg), Vladimír Brabec (Cornelius), Iveta Blanarovičová
(Leeloo), Tomáš Juřička (Ruby Rhod), Pavel Markovský (Billy)
Dále učinkovali: Libor Hruška, Antonín Navrátil, Bohdan Tůma, Jana Mařasová, Zuzana Schulzová, Jiří Kvasnička, Martin
Velda, Michal Suchánek, Martin Kolár, Bedřich Šetena, Miroslav Saic, Karel Richter, Josef Carda, Mojmír Maděrič,
Radovan Vaculík, Vladimír Čech, Jitka Ježková, Klára Doležalová, René Slováčková, Petra Vejrová a další

Překlad: Ludmila Hrůzová
Zvuk: Tomáš Bělohradský
Asistent režie: Iva Koudelková
Dialogy a režie českého znění: Zdeněk Podhůrský
Pro Intersonic připravila tvůrčí skupina Josefa Petráska, studio Budíkov 1998
..__.__..
Hlavní
Celý název a cesta : C:\paty.element.1997.br.dvdrip.xvid.cz-hajcus.avi
Formát : AVI
Formát/Info : Audio Video Interleave
Format profile : OpenDML
Velikost souboru : 2,02 GiB (3x700MiB)
Duration : 2h 0mn
Celkový BitRate : 2 400 Kbps
Použitý software : VirtualDubMod 1.5.10.2 (build 2542/release)
Enkódoval : VirtualDubMod build 2542/release

Video
Formát : MPEG-4 Visual
Format profile : Streaming [email protected]
Format settings, BVOP : Ne
Format settings, QPel : Ne
Format settings, GMC : No warppoints
Format settings, Matrix : Custom
Codec ID : XVID
Codec ID/Hint : XviD
Duration : 2h 0mn
Bit rate : 2 195 Kbps
Šířka : 720pixely
Výška : 352pixely
Poměr stran : 2.045
Frame rate : 25,000 fps
Original frame rate : 23,976 fps
Rozlišení : 24 bits
Colorimetry : 4:2:0
Scan type : Progressive
Bits/(Pixel*Frame) : 0.347
Stream size : 1,85 GiB (91%)
Enkódoval : XviD 50

Audio
Formát : AC-3
Formát/Info : Audio Coding 3
Codec ID : 2000
Duration : 2h 0mn
Bit rate mode : Constant
Bit rate : 192 Kbps
Kanál(y) : 2 kanály
Channel positions : L R
Sampling rate : 48,0 KHz
Video delay : 7s 600ms
Stream size : 166 MiB (8%)
Alignment : Split accross interleaves
Interleave, duration : 40 ms (1,00 video frame)
Interleave, preload duration : 500 ms
..._...
Re: Pátý element / The Fifth Element (1997)
SAMPLE (25.2MB):
Jen registrovaní uživatelé mohou vidět odkazy v code. Přihlaste se nebo zaregistrujte ZDARMA.

DVD OBAL CZE (1.28MB):
Jen registrovaní uživatelé mohou vidět odkazy v code. Přihlaste se nebo zaregistrujte ZDARMA.

.:_._:. RAPIDSHARE.COM (21x95.8MB+1x82.1MB)
Jen registrovaní uživatelé mohou vidět odkazy v code. Přihlaste se nebo zaregistrujte ZDARMA.

.._._.. selmicek

_________________
i_m_a_g_e

::: budliky budliky !!! :::


11 úno 2009, 05:28
Profil
Sergeant
Sergeant

Registrován: 26 dub 2008, 16:51
Příspěvky: 120
Příspěvek Re: Pátý element / The Fifth Element (1997)

Pátý element.avi


Re: Pátý element / The Fifth Element (1997)

__.__
Jen registrovaní uživatelé mohou vidět odkazy v code. Přihlaste se nebo zaregistrujte ZDARMA.






)..(
http://czshare.com/profi/images/logo.png
Jen registrovaní uživatelé mohou vidět odkazy v code. Přihlaste se nebo zaregistrujte ZDARMA.

_________________
Uploader


Naposledy upravil Trhac dne 27 kvě 2009, 09:29, celkově upraveno 1

10 kvě 2009, 15:01
Profil
Private 2 nd class
Private 2 nd class
Uživatelský avatar

Registrován: 23 říj 2008, 12:25
Příspěvky: 43
Příspěvek Re: Pátý element / The Fifth Element (1997)

Paty.Element.1997.AC3.BRRip.XviD.CZ



CSFD: http://www.csfd.cz/film/771

iNFO:
Jen registrovaní uživatelé mohou vidět odkazy v code. Přihlaste se nebo zaregistrujte ZDARMA.

SCREENS:
http://i39.tinypic.com/axh3qt.jpg


DOWNLOAD:
Jen registrovaní uživatelé mohou vidět odkazy v code. Přihlaste se nebo zaregistrujte ZDARMA.
alebo
Jen registrovaní uživatelé mohou vidět odkazy v code. Přihlaste se nebo zaregistrujte ZDARMA.


ZDROJ:
Jen registrovaní uživatelé mohou vidět odkazy v code. Přihlaste se nebo zaregistrujte ZDARMA.


Naposledy upravil ladan dne 27 úno 2012, 13:11, celkově upraveno 1
Smazány nefunkční odkazy a obrázky


27 kvě 2009, 09:06
Profil
Lieutenant
Lieutenant
Uživatelský avatar

Registrován: 18 čer 2009, 16:26
Příspěvky: 236
Příspěvek Re: Pátý element / The Fifth Element (1997)

Názov: Piaty element / Fifth Element, The (1997)

Jazyk: Český

iNFO:
Jen registrovaní uživatelé mohou vidět odkazy v code. Přihlaste se nebo zaregistrujte ZDARMA.

CSFD:
Akční / Sci-Fi / Komedie / Romantický
Francie / USA, 1997, 126 min
Režie: Luc Besson

Jen registrovaní uživatelé mohou vidět odkazy v code. Přihlaste se nebo zaregistrujte ZDARMA.

Link:

RapidShare.com
Jen registrovaní uživatelé mohou vidět odkazy v code. Přihlaste se nebo zaregistrujte ZDARMA.


Uploaded by Hunter2222 of Slovak Uploaders !!

Personal note:
Jen registrovaní uživatelé mohou vidět odkazy v code. Přihlaste se nebo zaregistrujte ZDARMA.


Naposledy upravil ladan dne 27 úno 2012, 13:18, celkově upraveno 1
Smazány nefunkční odkazy a obrázky


21 srp 2009, 09:25
Profil
Warrant
Warrant
Uživatelský avatar

Registrován: 11 kvě 2009, 13:17
Příspěvky: 196
Příspěvek Re: Pátý element / The Fifth Element (1997)

Pátý element / The Fifth Element (1997)
Pátý element / The Fifth Element.Dvd.Rip.XviD.CZ


Re: Pátý element / The Fifth Element (1997)

http://www.csfd.cz/film/771

Pátý element
Piaty element
Fifth Element, The

Akční / Sci-Fi / Komedie / Romantický
Francie / USA, 1997, 126 min

Režie: Luc Besson
Hrají: Bruce Willis, Gary Oldman, Ian Holm, Milla Jovovich, Chris Tucker, Luke Perry, Brion James, Marie Guillard, Tommy 'Tiny' Lister, Lee Evans, Charlie Creed - Miles, John Neville, John Bluthal, Mathieu Kassovitz, John Sharian, Maïwenn Le Besco, Mac McDonald, Martin McDougall, Lenny McLean, Frank Senger, Kim Chan

Vizuální žranice Luca Bessona není neprůstřelnou vizí budoucnosti, zato zahrnuje žánry komedie, sci-fi, romantického filmu a pohádky pro dospělé - protože děj se točí okolo zla, které každých pět tisíc let hrozí zničit Zemi. Ve vzdálené budoucnosti (patřičně barevné) se tomu lidstvo snaží zabránit pomocí kamenů, reprezentujících čtyři elementy: vodu, vzduch, zemi a oheň. Pátým elementem je dívka Leelou, která spadne do taxíku Corbena Dallase. K jejich týmu, zachraňujícímu svět, se brzy připojuje roztržitý kněz a výstřední černošský moderátor. Zlu ovšem také přibývá spojenec: padoušský magnát Zorg.

Jen registrovaní uživatelé mohou vidět odkazy v code. Přihlaste se nebo zaregistrujte ZDARMA.


Re: Pátý element / The Fifth Element (1997)

Jen registrovaní uživatelé mohou vidět odkazy v code. Přihlaste se nebo zaregistrujte ZDARMA.


Jen registrovaní uživatelé mohou vidět odkazy v code. Přihlaste se nebo zaregistrujte ZDARMA.


Re: Pátý element / The Fifth Element (1997)

Jen registrovaní uživatelé mohou vidět odkazy v code. Přihlaste se nebo zaregistrujte ZDARMA.


Re: Pátý element / The Fifth Element (1997)


Naposledy upravil ladan dne 27 úno 2012, 12:54, celkově upraveno 1
Smazány nefunkční obrázky


10 led 2011, 14:42
Profil
Sergeant
Sergeant

Registrován: 20 srp 2010, 12:46
Příspěvky: 109
Příspěvek Re: Pátý element / The Fifth Element (1997)

Pátý element / The Fifth Element (1997)

Re: Pátý element / The Fifth Element (1997)

Akční / Sci-Fi / Komedie / Romantický

Francie / USA, 1997, 126 min

Režie:Luc Besson
Hudba:Eric Serra
Hrají:Bruce Willis, Gary Oldman, Ian Holm, Milla Jovovich, Chris Tucker, Luke Perry, Brion James, Marie Guillard, Tommy 'Tiny' Lister, Lee Evans, Charlie Creed - Miles, John Neville, John Bluthal, Mathieu Kassovitz, John Sharian, Maïwenn Le Besco, Mac McDonald, Martin McDougall, Lenny McLean, Frank Senger, Kim Chan

Obsah:

Vizuální žranice Luca Bessona není neprůstřelnou vizí budoucnosti, zato zahrnuje žánry komedie, sci-fi, romantického filmu a pohádky pro dospělé - protože děj se točí okolo zla, které každých pět tisíc let hrozí zničit Zemi. Ve vzdálené budoucnosti (patřičně barevné) se tomu lidstvo snaží zabránit pomocí kamenů, reprezentujících čtyři elementy: vodu, vzduch, zemi a oheň. Pátým elementem je dívka Leelou, která spadne do taxíku Corbena Dallase. K jejich týmu, zachraňujícímu svět, se brzy připojuje roztržitý kněz a výstřední černošský moderátor. Zlu ovšem také přibývá spojenec: padoušský magnát Zorg.

Více na http://www.csfd.cz/film/771-paty-element/

Re: Pátý element / The Fifth Element (1997)
- CZ dubbing
- AVI
- 697 MB

http://nd04.jxs.cz/769/508/20765d54c8_77123009_o2.jpg?1308644159

)..(

Jen registrovaní uživatelé mohou vidět odkazy v code. Přihlaste se nebo zaregistrujte ZDARMA.


Re: Pátý element / The Fifth Element (1997)
Odkaz pro registraci na share-rapid.cz

Jen registrovaní uživatelé mohou vidět odkazy v code. Přihlaste se nebo zaregistrujte ZDARMA.


Naposledy upravil ladan dne 27 úno 2012, 12:52, celkově upraveno 1
Příliš široký obrázek (nad 950px) převeden na aktivní odkaz


21 čer 2011, 10:24
Profil
Sergeant
Sergeant

Registrován: 02 pro 2010, 19:32
Příspěvky: 111
Příspěvek Re: Pátý element / The Fifth Element (1997)

Paty element (1997)

.: Obsah :.
FASCINUJÍCÍ VESMÍRNÁ SÁGA! "PÁTÝ ELEMENT" - jeden z nejlepších a nejdokonalejších projektů, je příběhem boje Dobra proti Zlu, které se tentokrát nezajímá o peníze ani o moc, ale chce zničit samotný Život na Zemi - všechny lidi, zvířata, rostliny a dokonce i životodárné Světlo. Zlo přichází každých pět tisíc let z hlubin vesmíru v jiné podobě, a lidstvo každých pět tisíc let zapomíná, jak proti němu bojovat. Děj filmu začíná v Egyptě u pyramid okolo roku 1 700 a rychle přeskočí do New Yorku asi v roce 2 300. Jako nedobrovolný hrdina se newyorský taxikář KORBEN postavil proti Zlu a s pomocí zvláštní vesmírné bytosti a strážce dávného tajemství musí najít způsob, jak spojit sílu čtyř živlů, aby lidstvo mělo naději na záchranu. Musí najít pátř element...

.: Info :.
Jen registrovaní uživatelé mohou vidět odkazy v code. Přihlaste se nebo zaregistrujte ZDARMA.


.: CSFD :.
Jen registrovaní uživatelé mohou vidět odkazy v code. Přihlaste se nebo zaregistrujte ZDARMA.


.: Download :.
Jen registrovaní uživatelé mohou vidět odkazy v code. Přihlaste se nebo zaregistrujte ZDARMA.


NO PASS!
Enjoy! :)

Upload by Hrdlo (Feuri)


26 úno 2012, 17:46
Profil
Army General
Army General
Uživatelský avatar

Registrován: 02 srp 2012, 16:29
Příspěvky: 932
Příspěvek Re: Pátý element / The Fifth Element (1997)

Pátý element / Fifth Element, The (1997)

Paty.Element.1997.BRRip.XViD.CZ

Re: Pátý element / The Fifth Element (1997)

Jen registrovaní uživatelé mohou vidět odkazy v code. Přihlaste se nebo zaregistrujte ZDARMA.


Jen registrovaní uživatelé mohou vidět odkazy v code. Přihlaste se nebo zaregistrujte ZDARMA.


Re: Pátý element / The Fifth Element (1997)
Jen registrovaní uživatelé mohou vidět odkazy v code. Přihlaste se nebo zaregistrujte ZDARMA.


Re: Pátý element / The Fifth Element (1997)
Jen registrovaní uživatelé mohou vidět odkazy v code. Přihlaste se nebo zaregistrujte ZDARMA.


Re: Pátý element / The Fifth Element (1997)
Jen registrovaní uživatelé mohou vidět odkazy v code. Přihlaste se nebo zaregistrujte ZDARMA.


Re: Pátý element / The Fifth Element (1997)
Jen registrovaní uživatelé mohou vidět odkazy v code. Přihlaste se nebo zaregistrujte ZDARMA.


Re: Pátý element / The Fifth Element (1997)
Jen registrovaní uživatelé mohou vidět odkazy v code. Přihlaste se nebo zaregistrujte ZDARMA.


Re: Pátý element / The Fifth Element (1997)
Jen registrovaní uživatelé mohou vidět odkazy v code. Přihlaste se nebo zaregistrujte ZDARMA.



----------------------------------------
----------------------------------------



Pátý element / Fifth Element, The (1997)

Paty.Element.1997.BRRip.XViD.AC3.CZ

Re: Pátý element / The Fifth Element (1997)

Jen registrovaní uživatelé mohou vidět odkazy v code. Přihlaste se nebo zaregistrujte ZDARMA.


Jen registrovaní uživatelé mohou vidět odkazy v code. Přihlaste se nebo zaregistrujte ZDARMA.


Re: Pátý element / The Fifth Element (1997)
Jen registrovaní uživatelé mohou vidět odkazy v code. Přihlaste se nebo zaregistrujte ZDARMA.


Re: Pátý element / The Fifth Element (1997)
Jen registrovaní uživatelé mohou vidět odkazy v code. Přihlaste se nebo zaregistrujte ZDARMA.


Re: Pátý element / The Fifth Element (1997)
Jen registrovaní uživatelé mohou vidět odkazy v code. Přihlaste se nebo zaregistrujte ZDARMA.


Re: Pátý element / The Fifth Element (1997)
Jen registrovaní uživatelé mohou vidět odkazy v code. Přihlaste se nebo zaregistrujte ZDARMA.


Re: Pátý element / The Fifth Element (1997)
Jen registrovaní uživatelé mohou vidět odkazy v code. Přihlaste se nebo zaregistrujte ZDARMA.


Re: Pátý element / The Fifth Element (1997)
Jen registrovaní uživatelé mohou vidět odkazy v code. Přihlaste se nebo zaregistrujte ZDARMA.


21 říj 2012, 20:32
Profil
Warrant
Warrant

Registrován: 30 říj 2009, 15:26
Příspěvky: 167
Příspěvek Re: Pátý element / The Fifth Element (1997)

Pátý element / The Fifth Element (1997) 480p CZ
Re: Pátý element / The Fifth Element (1997)
Jen registrovaní uživatelé mohou vidět odkazy v code. Přihlaste se nebo zaregistrujte ZDARMA.

Jen registrovaní uživatelé mohou vidět odkazy v code. Přihlaste se nebo zaregistrujte ZDARMA.

Jen registrovaní uživatelé mohou vidět odkazy v code. Přihlaste se nebo zaregistrujte ZDARMA.

Bez hesla, zaznam na opravu dat 5% !

_________________
Moje nefunkční uploady hlaste do PM :)


06 úno 2013, 22:34
Profil
Colonel
Colonel

Registrován: 23 čer 2011, 20:11
Příspěvky: 362
Příspěvek Re: Pátý element / The Fifth Element (1997)

Pátý element (1997) / Fifth Element, The - CZ

BDRip ! !


Re: Pátý element / The Fifth Element (1997)


Sci-Fi / Akční / Komedie / Thriller

Francie, 1997, 126 min

Režie:Luc Besson
Hudba:Eric Serra
Hrají:Bruce Willis, Gary Oldman, Ian Holm, Milla Jovovich, Chris Tucker, Luke Perry, Brion James, Marie Guillard, Tommy 'Tiny' Lister, Lee Evans,
Charlie Creed-Miles, John Neville, John Bluthal, Mathieu Kassovitz, John Sharian, Maïwenn Le Besco, Mac McDonald, Martin McDougall, Lenny
McLean, Frank Senger, Kim Chan

Vizuální žranice Luca Bessona není neprůstřelnou vizí budoucnosti, zato zahrnuje žánry komedie, sci-fi, romantického filmu
a pohádky pro dospělé - protože děj se točí okolo zla, které každých pět tisíc let hrozí zničit Zemi. Ve vzdálené budoucnosti (patřičně barevné)
se tomu lidstvo snaží zabránit pomocí kamenů, reprezentujících čtyři elementy: vodu, vzduch, zemi a oheň. Pátým elementem je dívka Leelou,
která spadne do taxíku Corbena Dallase. K jejich týmu, zachraňujícímu svět, se brzy připojuje roztržitý kněz a výstřední černošský moderátor....



Re: Pátý element / The Fifth Element (1997)

Jen registrovaní uživatelé mohou vidět odkazy v code. Přihlaste se nebo zaregistrujte ZDARMA.




Náhled kvality filmu:

Re: Pátý element / The Fifth Element (1997)

Re: Pátý element / The Fifth Element (1997)



Kvalita:

Paty.Element.1997.AC3.BRRip.CZ.(1979 MB)
Formát: AVI
Audio: 2 channels | 192 Kbps Constant
Video: 720×352px – 2.045 | XviD (AVI) | 2 167 Kbps | 25.000 fps
Jazyk : CZ







Re: Pátý element / The Fifth Element (1997)


Re: Pátý element / The Fifth Element (1997)

Jen registrovaní uživatelé mohou vidět odkazy v code. Přihlaste se nebo zaregistrujte ZDARMA.





Re: Pátý element / The Fifth Element (1997)

Jen registrovaní uživatelé mohou vidět odkazy v code. Přihlaste se nebo zaregistrujte ZDARMA.






HESLO:


Bez hesla


Prodám velmi výhodně kredit na Share-rapid 100 kč - 300 kreditů (450 GB ), na podrobnosti pošlete kontakt na e-mail: [email protected]



...


01 dub 2013, 20:38
Profil
Colonel 5 th class
Colonel 5 th class
Uživatelský avatar

Registrován: 19 srp 2011, 00:35
Příspěvky: 608
Příspěvek Re: Pátý element / The Fifth Element (1997)

Pátý element / The Fifth Element CZ, ENG + CZ, ENG Tit. (1997) 1080p BluRay
Pátý.Element.The.Fifth.Element.Remastered.CZ.ENG.1997.1080p.BrRip.x264.YIFY.(CZmicroHD)
Re: Pátý element / The Fifth Element (1997)
Re: Pátý element / The Fifth Element (1997)
Jen registrovaní uživatelé mohou vidět odkazy v code. Přihlaste se nebo zaregistrujte ZDARMA.
Sci-Fi / Akční / Komedie / Thriller

Francie, 1997, 126 min
Režie:
Luc Besson
Scénář:
Luc Besson, Robert Mark Kamen
Kamera:
Thierry Arbogast
Hudba:
Eric Serra
Hrají:
Bruce Willis, Gary Oldman, Ian Holm, Milla Jovovich, Chris Tucker, Luke Perry, Brion James, Marie Guillard, Tommy 'Tiny' Lister, Lee Evans, Charlie Creed-Miles, Tricky, John Neville, John Bluthal, Mathieu Kassovitz, John Sharian, Maïwenn, Mac McDonald, Martin McDougall, Lenny McLean, Frank Senger, Kim Chan, Michael Culkin, Hon Ping Tang, Kevin Brewerton
MediaInfo
Citace:
Format : Matroska
File size : 1.57 GiB
Duration : 2h 6mn
Overall bit rate : 1 777 Kbps
Movie name : The Fifth Element (1997)
Encoded date : UTC 2014-04-23 07:04:26
Writing application : mkvmerge v6.7.0 ('Back to the Ground') 32bit built on Jan 8 2014 15:03:17
Writing library : libebml v1.3.0 + libmatroska v1.4.1

Video
ID : 1
Format : AVC
Format/Info : Advanced Video Codec
Format profile : [email protected]
Format settings, CABAC : Yes
Format settings, ReFrames : 5 frames
Codec ID : V_MPEG4/ISO/AVC
Duration : 2h 6mn
Nominal bit rate : 1 530 Kbps
Width : 1 920 pixels
Height : 800 pixels
Display aspect ratio : 2.40:1
Frame rate : 23.976 fps
Color space : YUV
Chroma subsampling : 4:2:0
Bit depth : 8 bits
Scan type : Progressive
Bits/(Pixel*Frame) : 0.042
Writing library : x264 core 120 r2164 da19765
Encoding settings : cabac=1 / ref=5 / deblock=1:-2:-1 / analyse=0x3:0x113 / me=umh / subme=5 / psy=1 / psy_rd=1.00:0.00 / mixed_ref=1 / me_range=16 / chroma_me=1 / trellis=1 / 8x8dct=1 / cqm=0 / deadzone=21,11 / fast_pskip=1 / chroma_qp_offset=0 / threads=12 / sliced_threads=0 / nr=0 / decimate=1 / interlaced=0 / bluray_compat=0 / constrained_intra=0 / bframes=16 / b_pyramid=2 / b_adapt=1 / b_bias=0 / direct=3 / weightb=1 / open_gop=0 / weightp=2 / keyint=240 / keyint_min=23 / scenecut=40 / intra_refresh=0 / rc=2pass / mbtree=0 / bitrate=1530 / ratetol=1.0 / qcomp=0.60 / qpmin=10 / qpmax=51 / qpstep=4 / cplxblur=20.0 / qblur=0.5 / ip_ratio=1.40 / pb_ratio=1.30 / aq=2:1.00
Language : English

Audio #1
ID : 2
Format : AAC
Format/Info : Advanced Audio Codec
Format profile : HE-AAC / LC
Codec ID : A_AAC
Duration : 2h 6mn
Channel(s) : 6 channels
Channel positions : Front: L C R, Side: L R, LFE
Sampling rate : 22.05 KHz / 11.025 KHz
Compression mode : Lossy
Language : English

Audio #2
ID : 4
Format : AC-3
Format/Info : Audio Coding 3
Mode extension : CM (complete main)
Codec ID : A_AC3
Duration : 2h 6mn
Bit rate mode : Constant
Bit rate : 192 Kbps
Channel(s) : 2 channels
Channel positions : Front: L R
Sampling rate : 48.0 KHz
Bit depth : 16 bits
Compression mode : Lossy
Delay relative to video : 7s 700ms
Stream size : 174 MiB (11%)
Language : Czech

Text #1
ID : 3
Format : UTF-8
Codec ID : S_TEXT/UTF8
Codec ID/Info : UTF-8 Plain Text
Language : English

Text #2
ID : 5
Format : UTF-8
Codec ID : S_TEXT/UTF8
Codec ID/Info : UTF-8 Plain Text
Language : Czech
Download FastShare
Jen registrovaní uživatelé mohou vidět odkazy v code. Přihlaste se nebo zaregistrujte ZDARMA.
Download Ulož.to
Jen registrovaní uživatelé mohou vidět odkazy v code. Přihlaste se nebo zaregistrujte ZDARMA.
Info
Citace:
Prosím bez reuploadu na FastShare a Ulož.to. Děkuji.


23 dub 2014, 17:37
Profil
Major
Major
Uživatelský avatar

Registrován: 11 dub 2009, 16:07
Příspěvky: 309
Příspěvek Re: Pátý element / The Fifth Element (1997)

Paty.Element.1997.BRRip.XViD.CZ

Re: Pátý element / The Fifth Element (1997)

Jen registrovaní uživatelé mohou vidět odkazy v code. Přihlaste se nebo zaregistrujte ZDARMA.


Jen registrovaní uživatelé mohou vidět odkazy v code. Přihlaste se nebo zaregistrujte ZDARMA.


Jen registrovaní uživatelé mohou vidět odkazy v code. Přihlaste se nebo zaregistrujte ZDARMA.


Jen registrovaní uživatelé mohou vidět odkazy v code. Přihlaste se nebo zaregistrujte ZDARMA.


PASS:
Jen registrovaní uživatelé mohou vidět odkazy v code. Přihlaste se nebo zaregistrujte ZDARMA.

_________________
Drogově závislý dělá chyby, ale drogový dealer páchá zločin který je potřeba vymýtit


23 črc 2014, 20:39
Profil
Colonel 3 rd class
Colonel 3 rd class

Registrován: 04 čer 2009, 01:05
Příspěvky: 495
Příspěvek Pátý element / The Fifth Element (1997)

Pátý element / Cinquieme élément, Le (1997)

CZ dabing


Pátý element / The Fifth Element (1997)
Jen registrovaní uživatelé mohou vidět odkazy v code. Přihlaste se nebo zaregistrujte ZDARMA.

Sci-Fi / Akční / Komedie / Thriller
Francie, 1997, 126 min

Režie: Luc Besson
Scénář: Luc Besson, Robert Mark Kamen
Kamera: Thierry Arbogast
Hudba: Eric Serra
Hrají: Bruce Willis, Gary Oldman, Ian Holm, Milla Jovovich, Chris Tucker, Luke Perry, Brion James, Marie Guillard, Tommy 'Tiny' Lister, Lee Evans, Charlie Creed-Miles, Tricky, John Neville, John Bluthal, Mathieu Kassovitz, John Sharian, Maiwenn, Mac McDonald, Martin McDougall, Lenny McLean, Frank Senger, Kim Chan, Michael Culkin, Hon Pin…
Obsah filmu: Vizuální žranice Luca Bessona není neprůstřelnou vizí budoucnosti, zato zahrnuje žánry komedie, sci-fi, romantického filmu a pohádky pro dospělé - protože děj se točí okolo zla, které každých pět tisíc let hrozí zničit Zemi. Ve vzdálené budoucnosti (patřičně barevné) se tomu lidstvo snaží zabránit pomocí kamenů, reprezentujících čtyři elementy: vodu, vzduch, zemi a oheň. Pátým elementem je dívka Leelou, která spadne do taxíku Corbena Dallase. K jejich týmu, zachraňujícímu svět, se brzy připojuje roztržitý kněz a výstřední černošský moderátor. Zlu ovšem ta…


Citace:
Formát : AVI
Formát/ : Audio Video Interleave
Velikost souboru : 1,70 GiB
Duration/String : 2h 1mn
Celkový BitRate : 2 011 Kbps
Použitý software : VirtualDubMod 1.5.4.1 (build 2178/release)
Enkódoval : VirtualDubMod build 2178/release

Video
ID : 0
Formát : MPEG-4 Visual
Format_Profile : Advanced [email protected]
Format_Settings_BVOP/String : 1
Format_Settings_QPel/String : Ne
Format_Settings_GMC/String : 0 warppoint
CodecID : XVID
/ : XviD
Duration/String : 2h 1mn
Bit rate : 1 812 Kbps
Šířka : 720pixely
Výška : 320pixely
Poměr stran : 2,25:1
Frame rate : 25,000 fps
ColorSpace : YUV
ChromaSubsampling : 4:2:0
BitDepth/String : 8 bits
ScanType/String : Progressive
Bits/(Pixel*Frame) : 0.315
StreamSize/String : 1,54 GiB (90%)
Enkódoval : XviD 1.2.1 (UTC 2008-12-04)

Audio
ID : 1
Formát : AC-3
Formát/ : Audio Coding 3
Format_Settings_ModeExtension : CM (complete main)
Format_Settings_Endianness : Big
CodecID : 2000
Duration/String : 2h 1mn
Bit rate : 192 Kbps
Kanál(y) : 2 kanály
Channel positions : Front: L R
Sampling rate : 48,0 KHz
BitDepth/String : 16 bits
StreamSize/String : 167 MiB (10%)
Interleave_Duration/String : 96 ms (2.40 video frames)
Interleave_Preload/String : 96 ms
Jazyk : Czech


Jen registrovaní uživatelé mohou vidět odkazy v code. Přihlaste se nebo zaregistrujte ZDARMA.


Jen registrovaní uživatelé mohou vidět odkazy v code. Přihlaste se nebo zaregistrujte ZDARMA.


10 kvě 2015, 16:14
Profil
Colonel
Colonel

Registrován: 04 bře 2011, 15:02
Příspěvky: 392
Příspěvek Re: Pátý element / The Fifth Element (1997)

Pátý element / Cinquième élément, Le (1997) DVDRip CZ

Re: Pátý element / The Fifth Element (1997)
Re: Pátý element / The Fifth Element (1997)

Re: Pátý element / The Fifth Element (1997)
Vizuální žranice Luca Bessona není neprůstřelnou vizí budoucnosti, zato zahrnuje žánry komedie, sci-fi, romantického filmu a pohádky pro dospělé - protože děj se točí okolo zla, které každých pět tisíc let hrozí zničit Zemi. Ve vzdálené budoucnosti (patřičně barevné) se tomu lidstvo snaží zabránit pomocí kamenů, reprezentujících čtyři elementy: vodu, vzduch, zemi a oheň. Pátým elementem je dívka Leelou, která spadne do taxíku Corbena Dallase. K jejich týmu, zachraňujícímu svět, se brzy připojuje roztržitý kněz a výstřední černošský moderátor. Zlu ovšem také přibývá spojenec: padoušský magnát Zorg.

Re: Pátý element / The Fifth Element (1997)
Jen registrovaní uživatelé mohou vidět odkazy v code. Přihlaste se nebo zaregistrujte ZDARMA.


Re: Pátý element / The Fifth Element (1997)
Sci-Fi / Akční / Komedie / Thriller
Francie, 1997, 126 min

Režie: Luc Besson
Scénář: Luc Besson, Robert Mark Kamen
Kamera: Thierry Arbogast
Hudba: Eric Serra
Hrají: Bruce Willis, Gary Oldman, Ian Holm, Milla Jovovich, Chris Tucker, Luke Perry, Brion James, Marie Guillard, Tommy 'Tiny' Lister, Lee Evans, Charlie Creed-Miles, Tricky, John Neville, John Bluthal, Mathieu Kassovitz, John Sharian, Maïwenn, Mac McDonald, Martin McDougall, Lenny McLean, Frank Senger, Kim Chan, Michael Culkin, Hon Ping Tang, Kevin Brewerton, Julie T. Wallace, Al Matthews, Mia Frye, Jean-Luc Caron, Christopher Fairbank, Christopher Adamson, Sean Buckley

Re: Pátý element / The Fifth Element (1997)
Jen registrovaní uživatelé mohou vidět odkazy v code. Přihlaste se nebo zaregistrujte ZDARMA.


Re: Pátý element / The Fifth Element (1997)
Jen registrovaní uživatelé mohou vidět odkazy v code. Přihlaste se nebo zaregistrujte ZDARMA.

Jen registrovaní uživatelé mohou vidět odkazy v code. Přihlaste se nebo zaregistrujte ZDARMA.


Archívy jsou testované a byl Přidán Záznam Pro Opravu Dat 5%...


18 bře 2016, 07:31
Profil
Zobrazit příspěvky za předchozí:  Seřadit podle  
Odeslat nové téma Odpovědět na téma  [ Příspěvků: 15 ] 

Všechny časy jsou v UTC + 1 hodina


Nemůžete zakládat nová témata v tomto fóru
Nemůžete odpovídat v tomto fóru
Nemůžete upravovat své příspěvky v tomto fóru
Nemůžete mazat své příspěvky v tomto fóru
Nemůžete přikládat soubory v tomto fóru









StahovaniZaSMS Pizza Modena MP3 free download