fastshare
Joe... cercati un posto per morire! (1968)
Vypnout statistiky
KATEGORIEPOSLEDNÍ PŘÍSPĚVKYPOSLEDNÍ OZNÁMENÍSTATISTIKY UŽIVATELE
Nick: Anonymous
Příspěvků: 2206
Hodnost: Warman
Varování: 0
---
Právě je 12 dub 2024, 13:23





Všechny časy jsou v UTC + 1 hodina




Odeslat nové téma Odpovědět na téma  [ Příspěvek: 1 ] 
 Joe... cercati un posto per morire! (1968) 
Autor Zpráva
Master Sergant
Master Sergant

Registrován: 27 srp 2008, 16:42
Příspěvky: 129
Příspěvek Joe... cercati un posto per morire! (1968)

Joe... cercati un posto per morire! (1968) + CZsub

Release
Joe...cercati.un.posto.per.morire!1968.ita.eng.fra.720p.repack.x264.ac3+CZsub.mkv

Audio - ITA-ac3.1ch || ENG-ac3.1ch || FRA-ac3.2ch
Titulky - ENG-srt || CZE-srt (preklad + podekovani => kubaso)


=> - provedena kompletni oprava casovani CZsub (podle ENG stopy, na ITA take sedi)



Joe... cercati un posto per morire! (1968)


csfd / imdb
Jen registrovaní uživatelé mohou vidět odkazy v code. Přihlaste se nebo zaregistrujte ZDARMA.


Mediainfo

Hlavní
Celý název a cesta : E:\Joe...cercati.un.posto.per.morire!1968.ita.eng.fra.720p.repack.x264.ac3+CZsub.mkv
Formát : Matroska
Format version : Version 4
Velikost souboru : 2,21 GiB
Duration : 1 h 29 min
Celkový BitRate : 3 545 kb/s
Frame rate : 23,976 FPS
Použitý software : mkvmerge v75.0.0 ('Goliath') 64-bit
Enkódoval : libebml v1.4.4 + libmatroska v1.7.1

Video
ID : 1
Formát : AVC
Formát/Info : Advanced Video Codec
Format profile : [email protected]
Format settings : CABAC / 11 Ref Frames
Format settings, CABAC : Ano
Format settings, Reference frames : 11 frames
Codec ID : V_MPEG4/ISO/AVC
Duration : 1 h 29 min
Bit rate : 2 999 kb/s
Šířka : 1 152pixely
Výška : 622pixely
Poměr stran : 1,85:1
Frame rate mode : Constant
Frame rate : 23,976 (24000/1001) FPS
Color space : YUV
Chroma subsampling : 4:2:0
Bit depth : 8 bits
Scan type : Progressive
Bits/(Pixel*Frame) : 0.175
Stream size : 1,87 GiB (85%)
Enkódoval : x264 core 164 r3107 a8b68eb
Nastavení enkoderu : cabac=1 / ref=11 / deblock=1:-1:-1 / analyse=0x3:0x133 / me=umh / subme=10 / psy=1 / psy_rd=1.00:0.15 / mixed_ref=1 / me_range=24 / chroma_me=1 / trellis=2 / 8x8dct=1 / cqm=0 / deadzone=21,11 / fast_pskip=1 / chroma_qp_offset=-3 / threads=6 / lookahead_threads=1 / sliced_threads=0 / nr=0 / decimate=1 / interlaced=0 / bluray_compat=0 / constrained_intra=0 / bframes=8 / b_pyramid=2 / b_adapt=2 / b_bias=0 / direct=3 / weightb=1 / open_gop=0 / weightp=2 / keyint=240 / keyint_min=23 / scenecut=40 / intra_refresh=0 / rc_lookahead=60 / rc=2pass / mbtree=1 / bitrate=2999 / ratetol=1.0 / qcomp=0.60 / qpmin=0 / qpmax=69 / qpstep=4 / cplxblur=20.0 / qblur=0.5 / vbv_maxrate=62500 / vbv_bufsize=78125 / nal_hrd=none / filler=0 / ip_ratio=1.40 / aq=1:1.00
Default : Ano
Forced : Ne

Audio #1
ID : 2
Formát : AC-3
Formát/Info : Audio Coding 3
Commercial name : Dolby Digital
Codec ID : A_AC3
Duration : 1 h 29 min
Bit rate mode : Constant
Bit rate : 160 kb/s
Kanál(y) : 1 kanál
Channel layout : M
Sampling rate : 48,0 kHz
Frame rate : 31,250 FPS (1536 SPF)
Compression mode : Lossy
Stream size : 102 MiB (5%)
Titul : ita-ac3.1ch
Jazyk : Italian
Service kind : Complete Main
Default : Ano
Forced : Ne

Audio #2
ID : 3
Formát : AC-3
Formát/Info : Audio Coding 3
Commercial name : Dolby Digital
Codec ID : A_AC3
Duration : 1 h 29 min
Bit rate mode : Constant
Bit rate : 192 kb/s
Kanál(y) : 1 kanál
Channel layout : M
Sampling rate : 48,0 kHz
Frame rate : 31,250 FPS (1536 SPF)
Compression mode : Lossy
Stream size : 122 MiB (5%)
Titul : eng-ac3.1ch
Jazyk : English
Service kind : Complete Main
Default : Ne
Forced : Ne

Audio #3
ID : 4
Formát : AC-3
Formát/Info : Audio Coding 3
Commercial name : Dolby Digital
Codec ID : A_AC3
Duration : 1 h 28 min
Bit rate mode : Constant
Bit rate : 192 kb/s
Kanál(y) : 2 kanály
Channel layout : L R
Sampling rate : 48,0 kHz
Frame rate : 31,250 FPS (1536 SPF)
Compression mode : Lossy
Stream size : 122 MiB (5%)
Titul : fra-ac3.2ch
Jazyk : French
Service kind : Complete Main
Default : Ne
Forced : Ne

Text #1
ID : 5
Formát : UTF-8
Codec ID : S_TEXT/UTF8
Codec ID/Info : UTF-8 Plain Text
Duration : 1 h 28 min
Bit rate : 29 b/s
Frame rate : 0,097 FPS
Count of elements : 512
Stream size : 19,2 KiB (0%)
Titul : cze-srt (preklad => kubaso)
Jazyk : Czech
Default : Ano
Forced : Ne

Text #2
ID : 6
Formát : UTF-8
Codec ID : S_TEXT/UTF8
Codec ID/Info : UTF-8 Plain Text
Duration : 1 h 28 min
Bit rate : 29 b/s
Frame rate : 0,113 FPS
Count of elements : 596
Stream size : 19,1 KiB (0%)
Titul : eng-srt
Jazyk : English
Default : Ne
Forced : Ne


=> prosim, v pripade reuploadu, zachovejte zde uvedeny odkaz na stazeni


Webshare
Jen registrovaní uživatelé mohou vidět odkazy v code. Přihlaste se nebo zaregistrujte ZDARMA.


23 led 2024, 16:49
Profil
Zobrazit příspěvky za předchozí:  Seřadit podle  
Odeslat nové téma Odpovědět na téma  [ Příspěvek: 1 ] 

Všechny časy jsou v UTC + 1 hodina


Nemůžete zakládat nová témata v tomto fóru
Nemůžete odpovídat v tomto fóru
Nemůžete upravovat své příspěvky v tomto fóru
Nemůžete mazat své příspěvky v tomto fóru
Nemůžete přikládat soubory v tomto fóru








Uložto alternativa Pizza Modena MovieDB.cz filmová databáze