fastshare
Rudá volavka / Red Sparrow (2018)
Vypnout statistiky
KATEGORIEPOSLEDNÍ PŘÍSPĚVKYPOSLEDNÍ OZNÁMENÍSTATISTIKY UŽIVATELE
Nick: Anonymous
Příspěvků: 2289
Hodnost: Warman
Varování: 0
---
Právě je 19 říj 2021, 10:43





Všechny časy jsou v UTC + 1 hodina


Pravidla fóra







Odeslat nové téma Odpovědět na téma  [ Příspěvků: 5 ] 
 Rudá volavka / Red Sparrow (2018) 
Autor Zpráva
Warman
Warman
Uživatelský avatar

Registrován: 31 srp 2015, 17:58
Příspěvky: 2693
Příspěvek Rudá volavka / Red Sparrow (2018)

Red Sparrow / Rudá volavka (2018)

Jen registrovaní uživatelé mohou vidět odkazy v code. Přihlaste se nebo zaregistrujte ZDARMA.

Ruda volavka.Red Sparrow.2018.720p.BluRay.x264.AC3.CZ
MediaInfo:
5,52 GiB
Jen registrovaní uživatelé mohou vidět odkazy v code. Přihlaste se nebo zaregistrujte ZDARMA.

DELETED


23 kvě 2018, 09:08
Profil
Warman
Warman

Registrován: 09 bře 2009, 18:27
Příspěvky: 1043
Příspěvek Re: Rudá volavka / Red Sparrow (2018)

Rudá volavka / Red Sparrow (2018)

Red.Sparrow.2018.COMPLETE.UHD.BLURAY-WhiteRhino

Re: Rudá volavka / Red Sparrow (2018)
Info:
Jen registrovaní uživatelé mohou vidět odkazy v code. Přihlaste se nebo zaregistrujte ZDARMA.

Jen registrovaní uživatelé mohou vidět odkazy v code. Přihlaste se nebo zaregistrujte ZDARMA.

DISC Info:
Jen registrovaní uživatelé mohou vidět odkazy v code. Přihlaste se nebo zaregistrujte ZDARMA.

Download:
Jen registrovaní uživatelé mohou vidět odkazy v code. Přihlaste se nebo zaregistrujte ZDARMA.


Naposledy upravil freesby89 dne 29 kvě 2018, 22:06, celkově upraveno 1

28 kvě 2018, 22:47
Profil
Warman
Warman

Registrován: 26 kvě 2015, 00:50
Příspěvky: 1244
Příspěvek Re: Rudá volavka / Red Sparrow (2018)

Rudá volavka / Red Sparrow (2018)

Jen registrovaní uživatelé mohou vidět odkazy v code. Přihlaste se nebo zaregistrujte ZDARMA.

Red.Sparrow.2018.720p.BluRay.x264.DD5.1.CZ
Jazyk: Czech 5,1 448 Kbps , English 5.1 640 Kbps
Subtitles: Czech forced , Czech , English forced , English

MediaINfo:
6,14 GiB
Jen registrovaní uživatelé mohou vidět odkazy v code. Přihlaste se nebo zaregistrujte ZDARMA.

Red.Sparrow.2018.1080p.BluRay.x264.DD5.1.CZ
Jazyk: Czech 5,1 448 Kbps , English 5.1 640 Kbps
Subtitles: Czech forced , Czech , English forced , English

MediaInfo:
10,5 GiB
Jen registrovaní uživatelé mohou vidět odkazy v code. Přihlaste se nebo zaregistrujte ZDARMA.
DELETED


29 kvě 2018, 19:15
Profil
Warman
Warman

Registrován: 15 črc 2007, 13:15
Příspěvky: 1900
Příspěvek Re: Rudá volavka / Red Sparrow (2018)

Rudá volavka / Red Sparrow (2018)

Jen registrovaní uživatelé mohou vidět odkazy v code. Přihlaste se nebo zaregistrujte ZDARMA.


Re: Rudá volavka / Red Sparrow (2018)
Re: Rudá volavka / Red Sparrow (2018)
Re: Rudá volavka / Red Sparrow (2018)

Jen registrovaní uživatelé mohou vidět odkazy v code. Přihlaste se nebo zaregistrujte ZDARMA.

_________________
i_m_a_g_e
BTC - bc1qqwfrkg2ukmeg5avpw0m6rhqggyx6ps6cxsee2g
LTC - LheKuTSWPe1uortYQCZVtvcZriwCJMJLhk
ETH - 0x0533d33F7d342Bd9A3D756cB560EF16ce94cecB9


02 dub 2021, 21:34
Profil
Colonel 2 nd class
Colonel 2 nd class

Registrován: 07 srp 2007, 21:33
Příspěvky: 444
Příspěvek Re: Rudá volavka / Red Sparrow (2018)

Rudá volavka / Red Sparrow (2018)
Re: Rudá volavka / Red Sparrow (2018)

Jen registrovaní uživatelé mohou vidět odkazy v code. Přihlaste se nebo zaregistrujte ZDARMA.


MEDIAINFO

General
Unique ID : 96817276997407804629739536415399019534 (0x48D6544C5F0FF19F0114F1C29087040E)
Complete name : Rudá volavka (2018) 1080 p CZ DABING.mkv
Format : Matroska
Format version : Version 4
File size : 21.9 GiB
Duration : 2 h 20 min
Overall bit rate mode : Variable
Overall bit rate : 22.4 Mb/s
Encoded date : UTC 2021-04-18 15:52:32
Writing application : mkvmerge v55.0.0 ('Waiting For Space') 64-bit
Writing library : libebml v1.4.2 + libmatroska v1.6.4 / Lavf56.30.100

Video
ID : 1
Format : AVC
Format/Info : Advanced Video Codec
Format profile : [email protected]
Format settings : CABAC / 4 Ref Frames
Format settings, CABAC : Yes
Format settings, Reference frames : 4 frames
Codec ID : V_MPEG4/ISO/AVC
Duration : 2 h 20 min
Bit rate mode : Variable
Bit rate : 21.9 Mb/s
Maximum bit rate : 31.0 Mb/s
Width : 1 920 pixels
Height : 1 080 pixels
Display aspect ratio : 16:9
Frame rate mode : Constant
Frame rate : 23.976 (24000/1001) FPS
Color space : YUV
Chroma subsampling : 4:2:0
Bit depth : 8 bits
Scan type : Progressive
Bits/(Pixel*Frame) : 0.441
Stream size : 21.5 GiB (98%)
Title : h264 1920x1080 16/9
Default : Yes
Forced : No
Track/Position : 0

Audio
ID : 2
Format : AC-3
Format/Info : Audio Coding 3
Commercial name : Dolby Digital
Codec ID : A_AC3
Duration : 2 h 20 min
Bit rate mode : Constant
Bit rate : 448 kb/s
Channel(s) : 6 channels
Channel layout : L R C LFE Ls Rs
Sampling rate : 48.0 kHz
Frame rate : 31.250 FPS (1536 SPF)
Compression mode : Lossy
Stream size : 449 MiB (2%)
Language : Czech
Service kind : Complete Main
Default : Yes
Forced : No

Text #1
ID : 3
Format : UTF-8
Codec ID : S_TEXT/UTF8
Codec ID/Info : UTF-8 Plain Text
Duration : 44 min 9 s
Bit rate : 0 b/s
Count of elements : 3
Stream size : 112 Bytes (0%)
Title : forced SRT
Language : Czech
Default : No
Forced : Yes

Text #2
ID : 4
Format : ASS
Codec ID : S_TEXT/ASS
Codec ID/Info : Advanced Sub Station Alpha
Duration : 44 min 9 s
Bit rate : 0 b/s
Count of elements : 3
Compression mode : Lossless
Stream size : 172 Bytes (0%)
Title : forced ASS
Language : Czech
Default : No
Forced : Yes

Text #3
ID : 5
Format : UTF-8
Codec ID : S_TEXT/UTF8
Codec ID/Info : UTF-8 Plain Text
Duration : 2 h 18 min
Bit rate : 40 b/s
Count of elements : 1468
Stream size : 41.5 KiB (0%)
Language : Czech
Default : No
Forced : No

Menu #1
00:00:00.000 : :Chapter 1
00:08:00.021 : :Chapter 2
00:11:31.899 : :Chapter 3
00:16:57.099 : :Chapter 4
00:21:09.560 : :Chapter 5
00:27:21.181 : :Chapter 6
00:33:03.273 : :Chapter 7
00:38:09.161 : :Chapter 8
00:42:29.046 : :Chapter 9
00:46:41.715 : :Chapter 10
00:54:14.251 : :Chapter 11
00:58:45.396 : :Chapter 12
01:04:55.183 : :Chapter 13
01:10:26.054 : :Chapter 14
01:16:28.166 : :Chapter 15
01:26:44.616 : :Chapter 16
01:32:06.854 : :Chapter 17
01:36:22.359 : :Chapter 18
01:41:53.064 : :Chapter 19
01:49:48.331 : :Chapter 20
01:53:45.526 : :Chapter 21
01:58:51.999 : :Chapter 22
02:07:20.049 : :Chapter 23
02:13:40.011 : :Chapter 24
02:20:03.238 : :Chapter 25

Menu #2
00:00:00.000 : en:(01)00:00:00:000
00:08:00.021 : en:(02)00:08:00:021
00:11:31.899 : en:(03)00:11:31:899
00:16:57.099 : en:(04)00:16:57:099
00:21:09.560 : en:(05)00:21:09:560
00:27:21.181 : en:(06)00:27:21:181
00:33:03.273 : en:(07)00:33:03:273
00:38:09.161 : en:(08)00:38:09:161
00:42:29.046 : en:(09)00:42:29:046
00:46:41.715 : en:(10)00:46:41:715
00:54:14.251 : en:(11)00:54:14:251
00:58:45.396 : en:(12)00:58:45:396
01:04:55.183 : en:(13)01:04:55:183
01:10:26.054 : en:(14)01:10:26:054
01:16:28.166 : en:(15)01:16:28:166
01:26:44.616 : en:(16)01:26:44:616
01:32:06.854 : en:(17)01:32:06:854
01:36:22.359 : en:(18)01:36:22:359
01:41:53.064 : en:(19)01:41:53:064
01:49:48.331 : en:(20)01:49:48:331
01:53:45.526 : en:(21)01:53:45:526
01:58:51.999 : en:(22)01:58:51:999
02:07:20.049 : en:(23)02:07:20:049
02:13:40.011 : en:(24)02:13:40:011
02:20:12.987 : en:(25)02:20:12:987

Jen registrovaní uživatelé mohou vidět odkazy v code. Přihlaste se nebo zaregistrujte ZDARMA.


Jen registrovaní uživatelé mohou vidět odkazy v code. Přihlaste se nebo zaregistrujte ZDARMA.


Jen registrovaní uživatelé mohou vidět odkazy v code. Přihlaste se nebo zaregistrujte ZDARMA.

_________________
Prodej kreditů na SDILEJ.CZ již od 45 Kčhttp://www.warcenter.cz/viewtopic.php?p=2999610#p2999610


19 čer 2021, 08:38
Profil
Zobrazit příspěvky za předchozí:  Seřadit podle  
Odeslat nové téma Odpovědět na téma  [ Příspěvků: 5 ] 

Všechny časy jsou v UTC + 1 hodina


Nemůžete zakládat nová témata v tomto fóru
Nemůžete odpovídat v tomto fóru
Nemůžete upravovat své příspěvky v tomto fóru
Nemůžete mazat své příspěvky v tomto fóru
Nemůžete přikládat soubory v tomto fóru









StahovaniZaSMS Pizza Modena MP3 free download