fastshare
Pravdepodobnost nula / Probabilita zero (1969)
Vypnout statistiky
KATEGORIEPOSLEDNÍ PŘÍSPĚVKYPOSLEDNÍ OZNÁMENÍSTATISTIKY UŽIVATELE
Nick: Anonymous
Příspěvků: 2214
Hodnost: Warman
Varování: 0
---
Právě je 04 bře 2024, 17:16





Všechny časy jsou v UTC + 1 hodina


Pravidla fóra







Odeslat nové téma Odpovědět na téma  [ Příspěvek: 1 ] 
 Pravdepodobnost nula / Probabilita zero (1969) 
Autor Zpráva
Sergeant
Sergeant

Registrován: 27 srp 2008, 16:42
Příspěvky: 111
Příspěvek Pravdepodobnost nula / Probabilita zero (1969)

Pravdepodobnost nula / Probabilita zero (1969)

Release
Probabilita.zero_Pravdepodobnost.nula.1969.ita.eng.fra.cze.1080p.webrip.ac3.mkv

Audio - ENG-ac3.2ch || ITA-aac.2ch || FRA-ac3.2ch || CZE-ac3.2ch
Titulky - ENG-srt || FRA-srt


=> - provedena oprava + synchro CZE stopy



Pravdepodobnost nula / Probabilita zero (1969)


csfd / imdb
Jen registrovaní uživatelé mohou vidět odkazy v code. Přihlaste se nebo zaregistrujte ZDARMA.


Mediainfo

Hlavní
Celý název a cesta : E:\Probabilita.zero_Pravdepodobnost.nula.1969.ita.eng.fra.cze.1080p.webrip.ac3.mkv
Formát : Matroska
Format version : Version 4
Velikost souboru : 3,66 GiB
Duration : 1 h 29 min
Celkový BitRate : 5 843 kb/s
Frame rate : 25,000 FPS
Použitý software : mkvmerge v66.0.0 ('Josie') 64-bit
Enkódoval : libebml v1.4.2 + libmatroska v1.6.4

Video
ID : 1
Formát : AVC
Formát/Info : Advanced Video Codec
Format profile : High@L4
Format settings : CABAC / 4 Ref Frames
Format settings, CABAC : Ano
Format settings, Reference frames : 4 frames
Format settings, GOP : M=1, N=25
Codec ID : V_MPEG4/ISO/AVC
Duration : 1 h 29 min
Bit rate : 5 200 kb/s
Šířka : 1 920pixely
Výška : 1 080pixely
Poměr stran : 16:9
Frame rate mode : Constant
Frame rate : 25,000 FPS
Color space : YUV
Chroma subsampling : 4:2:0
Bit depth : 8 bits
Scan type : Progressive
Bits/(Pixel*Frame) : 0.100
Stream size : 3,26 GiB (89%)
Enkódoval : x264 core 142
Nastavení enkoderu : cabac=1 / ref=3 / deblock=1:0:0 / analyse=0x3:0x113 / me=hex / subme=7 / psy=1 / psy_rd=1.00:0.00 / mixed_ref=1 / me_range=16 / chroma_me=1 / trellis=1 / 8x8dct=1 / cqm=0 / deadzone=21,11 / fast_pskip=1 / chroma_qp_offset=-2 / threads=4 / lookahead_threads=1 / sliced_threads=0 / nr=0 / decimate=1 / interlaced=0 / bluray_compat=0 / constrained_intra=0 / bframes=3 / b_pyramid=2 / b_adapt=1 / b_bias=0 / direct=1 / weightb=1 / open_gop=0 / weightp=2 / keyint=25 / keyint_min=2 / scenecut=0 / intra_refresh=0 / rc_lookahead=25 / rc=abr / mbtree=1 / bitrate=5200 / ratetol=1.0 / qcomp=0.60 / qpmin=0 / qpmax=69 / qpstep=4 / vbv_maxrate=5720 / vbv_bufsize=5200 / nal_hrd=none / filler=0 / ip_ratio=1.40 / aq=1:1.00
Default : Ano
Forced : Ne

Audio #1
ID : 2
Formát : AC-3
Formát/Info : Audio Coding 3
Commercial name : Dolby Digital
Codec ID : A_AC3
Duration : 1 h 29 min
Bit rate mode : Constant
Bit rate : 256 kb/s
Kanál(y) : 2 kanály
Channel layout : L R
Sampling rate : 48,0 kHz
Frame rate : 31,250 FPS (1536 SPF)
Compression mode : Lossy
Stream size : 164 MiB (4%)
Titul : cze-ac3.2ch
Jazyk : Czech
Service kind : Complete Main
Default : Ano
Forced : Ne

Audio #2
ID : 3
Formát : AAC LC SBR
Formát/Info : Advanced Audio Codec Low Complexity with Spectral Band Replication
Commercial name : HE-AAC
Format settings : Explicit
Codec ID : A_AAC-2
Duration : 1 h 29 min
Bit rate : 64,0 kb/s
Kanál(y) : 2 kanály
Channel layout : L R
Sampling rate : 48,0 kHz
Frame rate : 23,438 FPS (2048 SPF)
Compression mode : Lossy
Stream size : 41,1 MiB (1%)
Titul : ita-aac.2ch
Jazyk : Italian
Default : Ne
Forced : Ne

Audio #3
ID : 4
Formát : AC-3
Formát/Info : Audio Coding 3
Commercial name : Dolby Digital
Codec ID : A_AC3
Duration : 1 h 29 min
Bit rate mode : Constant
Bit rate : 192 kb/s
Kanál(y) : 2 kanály
Channel layout : L R
Sampling rate : 48,0 kHz
Frame rate : 31,250 FPS (1536 SPF)
Compression mode : Lossy
Stream size : 123 MiB (3%)
Titul : eng-ac3.2ch
Jazyk : English
Service kind : Complete Main
Default : Ne
Forced : Ne

Audio #4
ID : 5
Formát : AC-3
Formát/Info : Audio Coding 3
Commercial name : Dolby Digital
Codec ID : A_AC3
Duration : 1 h 29 min
Bit rate mode : Constant
Bit rate : 128 kb/s
Kanál(y) : 2 kanály
Channel layout : L R
Sampling rate : 44,1 kHz
Frame rate : 28,711 FPS (1536 SPF)
Compression mode : Lossy
Stream size : 82,1 MiB (2%)
Titul : fra-ac3.2ch
Jazyk : French
Service kind : Complete Main
Default : Ne
Forced : Ne

Text #1
ID : 6
Formát : UTF-8
Codec ID : S_TEXT/UTF8
Codec ID/Info : UTF-8 Plain Text
Duration : 1 min 21 s
Bit rate : 48 b/s
Frame rate : 0,123 FPS
Count of elements : 10
Stream size : 495 Bytes (0%)
Titul : eng-srt
Jazyk : English
Default : Ne
Forced : Ne

Text #2
ID : 7
Formát : UTF-8
Codec ID : S_TEXT/UTF8
Codec ID/Info : UTF-8 Plain Text
Duration : 24 s 0 ms
Bit rate : 100 b/s
Frame rate : 0,125 FPS
Count of elements : 3
Stream size : 300 Bytes (0%)
Titul : fra-srt
Jazyk : French
Default : Ne
Forced : Ne


=> prosim, v pripade reuploadu, zachovejte zde uvedeny odkaz na stazeni


Webshare
Jen registrovaní uživatelé mohou vidět odkazy v code. Přihlaste se nebo zaregistrujte ZDARMA.


08 pro 2023, 13:22
Profil
Zobrazit příspěvky za předchozí:  Seřadit podle  
Odeslat nové téma Odpovědět na téma  [ Příspěvek: 1 ] 

Všechny časy jsou v UTC + 1 hodina


Nemůžete zakládat nová témata v tomto fóru
Nemůžete odpovídat v tomto fóru
Nemůžete upravovat své příspěvky v tomto fóru
Nemůžete mazat své příspěvky v tomto fóru
Nemůžete přikládat soubory v tomto fóru








Uložto alternativa Pizza Modena MovieDB.cz filmová databáze