fastshare
Příchozí / Prvý kontakt / Arrival (2016)
Vypnout statistiky
KATEGORIEPOSLEDNÍ PŘÍSPĚVKYPOSLEDNÍ OZNÁMENÍSTATISTIKY UŽIVATELE
Nick: Anonymous
Příspěvků: 2288
Hodnost: Warman
Varování: 0
---
Právě je 03 pro 2021, 00:10





Všechny časy jsou v UTC + 1 hodina


Pravidla fóra







Odeslat nové téma Odpovědět na téma  [ Příspěvků: 3 ] 
 Příchozí / Prvý kontakt / Arrival (2016) 
Autor Zpráva
Warman
Warman

Registrován: 26 kvě 2015, 00:50
Příspěvky: 1244
Příspěvek Příchozí / Prvý kontakt / Arrival (2016)

Příchozí / Arrival (2016)

Prvý kontakt


Příchozí / Prvý kontakt / Arrival (2016)

Jen registrovaní uživatelé mohou vidět odkazy v code. Přihlaste se nebo zaregistrujte ZDARMA.
...Příchozí

Prvý kontakt


Drama / Mysteriózní / Sci-Fi / Thriller
USA, 2016, 117 min
Režie: Denis Villeneuve
Předloha: Ted Chiang (povídka)
Scénář: Eric Heisserer
Kamera: Bradford Young
Hudba: Jóhann Jóhannsson
Hrají: Amy Adams, Jeremy Renner, Forest Whitaker, Michael Stuhlbarg, Tzi Ma, Mark O'Brien, Joe Cobden, Russell Yuen, Nathaly Thibault, Pat Kiely, ...

Když po celém světě přistanou tajemné vesmírné lodě, dojde k sestavení elitního týmu – v čele s odbornicí na lingvistiku Louise Banksovou (Amy Adams) – s cílem zjistit, jaké mají mimozemšťané úmysly. Zatímco celé lidstvo balancuje na pokraji globální války, Banksová se společně se svým týmem pokouší ve velmi omezeném čase najít odpovědi – a aby je byla schopna najít, bude muset přistoupit k činům, které mohou ohrozit nejen její vlastní život, ale dost možná osud celého lidstva. (Falcon)

Děj se odehrává v době, kdy po celé planetě Zemi začaly přistávat mimozemské lodě. Expertka lingvistiky, Dr. Louise Banks (Amy Adams) je povolána vládou, aby zjistila, zda vetřelci přiletěli v míru, nebo jsou hrozbou... (LittleMonste)

Když se nad tuctem míst na Zemi objeví obrovská pouzdra neznámého původu, vydávají se je studovat špičkové vědecké týmy. Úmysly návštěvníků z vesmíru ale zůstávají nejasné a politickým představitelům světových mocností rychle dochází trpělivost. Nebylo by přece jen bezpečnější zvolit důrazné řešení, zbavit se cizorodých těles i jejich posádky nadobro a předejít tak globální krizi, k níž se schyluje? Fyzik Ian Donnelly (Jeremy Renner) a lingvistka Louise Banksová (Amy Adamsová), kteří vedou americkou výzkumnou skupinu, však spojují své síly, aby ukázali, že návštěvníci z vesmíru jsou hrozbou pro lidstvo jen tehdy, nedokážeme-li s nimi komunikovat. (MFF Karlovy Vary)
.....


Arrival.2016.720p.BluRay.x264.CZ
Audio: Czech 5.1 640 Kbps , English 5.1 640 Kbps
Titulky: Czech forced , Czech , English
MediaInfo:
5,28 GiB
Jen registrovaní uživatelé mohou vidět odkazy v code. Přihlaste se nebo zaregistrujte ZDARMA.

Arrival.2016.1080p.BluRay.x264.CZ
Audio: Czech 5.1 640 Kbps , English 5.1 640 Kbps
Titulky: Czech forced , Czech , English
MediaInfo:
8,56 GiB
Jen registrovaní uživatelé mohou vidět odkazy v code. Přihlaste se nebo zaregistrujte ZDARMA.


12 bře 2017, 10:47
Profil
Lieutenant
Lieutenant

Registrován: 27 říj 2010, 16:43
Příspěvky: 212
Příspěvek Re: Příchozí / Arrival (2016)

Příchozí / Arrival (2016)

Re: Příchozí / Arrival (2016)

Drama / Mysteriózní / Sci-Fi / Thriller
USA, 2016, 117 min

Když po celém světě přistanou tajemné vesmírné lodě, dojde k sestavení elitního týmu – v čele s odbornicí na lingvistiku Louise Banksovou (Amy Adams) – s cílem zjistit, jaké mají mimozemšťané úmysly. Zatímco celé lidstvo balancuje na pokraji globální války, Banksová se společně se svým týmem pokouší ve velmi omezeném čase najít odpovědi – a aby je byla schopna najít, bude muset přistoupit k činům, které mohou ohrozit nejen její vlastní život, ale dost možná osud celého lidstva.(Falcon)
Jen registrovaní uživatelé mohou vidět odkazy v code. Přihlaste se nebo zaregistrujte ZDARMA.


jazyk:CZ,Eng
titulky:CZ,Eng

MediaInfo:
12,7 GiB
Jen registrovaní uživatelé mohou vidět odkazy v code. Přihlaste se nebo zaregistrujte ZDARMA.

download fastshare:
Jen registrovaní uživatelé mohou vidět odkazy v code. Přihlaste se nebo zaregistrujte ZDARMA.


07 bře 2021, 14:45
Profil
Colonel 3 rd class
Colonel 3 rd class

Registrován: 07 srp 2007, 21:33
Příspěvky: 478
Příspěvek Re: Příchozí / Arrival (2016)

Příchozí / Arrival (2016)

Re: Příchozí / Arrival (2016)

Jen registrovaní uživatelé mohou vidět odkazy v code. Přihlaste se nebo zaregistrujte ZDARMA.

MediaInfo:
11,4 GiB
General
Unique ID : 113149927634037327661486018872644033371 (0x551FE2256CDDC007AE2950841AA95B5B)
Complete name : Příchozí (2016) 1080 p CZ DABING.mkv
Format : Matroska
Format version : Version 4
File size : 11.4 GiB
Duration : 1 h 56 min
Overall bit rate : 14.0 Mb/s
Movie name : Příchozí (2016) 1080 p CZ DABING
Encoded date : UTC 2021-05-13 16:33:52
Writing application : mkvmerge v55.0.0 ('Waiting For Space') 64-bit
Writing library : libebml v1.4.2 + libmatroska v1.6.4
Cover : Yes
Attachments : Cover.png

Video
ID : 1
Format : AVC
Format/Info : Advanced Video Codec
Format profile : [email protected]
Format settings : CABAC / 5 Ref Frames
Format settings, CABAC : Yes
Format settings, Reference frames : 5 frames
Codec ID : V_MPEG4/ISO/AVC
Duration : 1 h 56 min
Bit rate : 13.4 Mb/s
Width : 1 920 pixels
Height : 804 pixels
Display aspect ratio : 2.40:1
Frame rate mode : Constant
Frame rate : 23.976 (24000/1001) FPS
Color space : YUV
Chroma subsampling : 4:2:0
Bit depth : 8 bits
Scan type : Progressive
Bits/(Pixel*Frame) : 0.362
Stream size : 10.9 GiB (95%)
Writing library : x264 core 148 r2705+54 9f484c1 t_mod_Custom [[email protected] X86_64]
Encoding settings : cabac=1 / ref=5 / deblock=1:-3:-3 / analyse=0x3:0x133 / me=umh / subme=11 / psy=1 / fade_compensate=0.00 / psy_rd=1.05:0.00 / mixed_ref=1 / me_range=32 / chroma_me=1 / trellis=2 / 8x8dct=1 / cqm=0 / deadzone=21,11 / fast_pskip=0 / chroma_qp_offset=-2 / threads=12 / lookahead_threads=2 / sliced_threads=0 / nr=0 / decimate=0 / interlaced=0 / bluray_compat=0 / constrained_intra=0 / fgo=0 / bframes=9 / b_pyramid=2 / b_adapt=2 / b_bias=0 / direct=3 / weightb=1 / open_gop=0 / weightp=2 / keyint=250 / keyint_min=23 / scenecut=40 / intra_refresh=0 / rc_lookahead=60 / rc=crf / mbtree=0 / crf=15.8000 / qcomp=0.65 / qpmin=0:0:0 / qpmax=69:69:69 / qpstep=4 / vbv_maxrate=62500 / vbv_bufsize=78125 / crf_max=0.0 / nal_hrd=none / filler=0 / ip_ratio=1.30 / pb_ratio=1.20 / aq=3:0.80 / aq-sensitivity=10.00 / aq-factor=1.00:1.00:1.00 / aq2=0 / aq3=0 / zones=510,805,crf=13/1030,1348,crf=13/20898,20983,crf=14.5/21470,21647,crf=13/21893,22796,crf=14.5/22797,22952,crf=14/22953,25259,crf=14.5/27897,27974,crf=14/28151,28268,crf=14/28867,29073,crf=14.5/33765,36584,crf=14/46392,46789,crf=14/47167,47244,crf=13/47362,47443,crf=13/53587,53827,crf=13/53925,54105,crf=15/54606,54687,crf=13/54717,54993,crf=13/55339,55619,crf=13/55819,56080,crf=15/64125,64238,crf=13/65519,65959,crf=14/66311,66702,crf=15/66790,66951,crf=15/67043,67211,crf=15/70252,70314,crf=13/75690,76132,crf=15/80337,82826,crf=15/84529,84679,crf=14/85276,85441,crf=14/85513,85662,crf=14/88866,90274,crf=15/95836,95908,crf=14/101375,101462,crf=13/103282,103434,crf=15/106745,106932,crf=14/108203,108274,crf=12/122800,123150,crf=13/123843,124029,crf=13/124442,124573,crf=14/124687,125169,crf=14/137942,138063,crf=14/138503,138618,crf=14/150062,150227,crf=14/150882,151183,crf=14
Default : Yes
Forced : Yes
Color range : Limited
Matrix coefficients : BT.709

Audio
ID : 2
Format : AC-3
Format/Info : Audio Coding 3
Commercial name : Dolby Digital
Codec ID : A_AC3
Duration : 1 h 56 min
Bit rate mode : Constant
Bit rate : 640 kb/s
Channel(s) : 6 channels
Channel layout : L R C LFE Ls Rs
Sampling rate : 48.0 kHz
Frame rate : 31.250 FPS (1536 SPF)
Compression mode : Lossy
Stream size : 533 MiB (5%)
Title : CZ AC3 5.1
Language : Czech
Service kind : Complete Main
Default : Yes
Forced : Yes

Text #1
ID : 3
Format : UTF-8
Codec ID : S_TEXT/UTF8
Codec ID/Info : UTF-8 Plain Text
Duration : 1 h 42 min
Bit rate : 0 b/s
Count of elements : 25
Stream size : 587 Bytes (0%)
Title : CZ Forced
Language : Czech
Default : Yes
Forced : Yes

Text #2
ID : 4
Format : UTF-8
Codec ID : S_TEXT/UTF8
Codec ID/Info : UTF-8 Plain Text
Duration : 1 h 54 min
Bit rate : 46 b/s
Count of elements : 1077
Stream size : 39.1 KiB (0%)
Title : CZ
Language : Czech
Default : No
Forced : No

Menu
00:00:00.000 : en:00:00:00.000
00:09:49.923 : en:00:09:49.923
00:17:33.552 : en:00:17:33.552
00:23:28.282 : en:00:23:28.282
00:33:54.157 : en:00:33:54.157
00:41:01.709 : en:00:41:01.709
00:52:26.101 : en:00:52:26.101
00:57:34.576 : en:00:57:34.576
01:03:06.449 : en:01:03:06.449
01:09:29.207 : en:01:09:29.207
01:16:09.398 : en:01:16:09.398
01:25:21.825 : en:01:25:21.825
01:35:37.065 : en:01:35:37.065
01:45:26.695 : en:01:45:26.695

Jen registrovaní uživatelé mohou vidět odkazy v code. Přihlaste se nebo zaregistrujte ZDARMA.

Jen registrovaní uživatelé mohou vidět odkazy v code. Přihlaste se nebo zaregistrujte ZDARMA.

Jen registrovaní uživatelé mohou vidět odkazy v code. Přihlaste se nebo zaregistrujte ZDARMA.

_________________
Prodej kreditů na SDILEJ.CZ již od 45 Kčhttp://www.warcenter.cz/viewtopic.php?p=2999610#p2999610


19 čer 2021, 08:36
Profil
Zobrazit příspěvky za předchozí:  Seřadit podle  
Odeslat nové téma Odpovědět na téma  [ Příspěvků: 3 ] 

Všechny časy jsou v UTC + 1 hodina


Nemůžete zakládat nová témata v tomto fóru
Nemůžete odpovídat v tomto fóru
Nemůžete upravovat své příspěvky v tomto fóru
Nemůžete mazat své příspěvky v tomto fóru
Nemůžete přikládat soubory v tomto fóru









StahovaniZaSMS Pizza Modena MP3 free download