fastshare
Malá mořská víla / Little Mermaid, The (1989)
Vypnout statistiky
KATEGORIEPOSLEDNÍ PŘÍSPĚVKYPOSLEDNÍ OZNÁMENÍSTATISTIKY UŽIVATELE
Nick: Anonymous
Příspěvků: 2286
Hodnost: Warman
Varování: 0
---
Právě je 27 čer 2022, 15:38





Všechny časy jsou v UTC + 1 hodina


Pravidla fóra







Odeslat nové téma Odpovědět na téma  [ Příspěvek: 1 ] 
 Malá mořská víla / Little Mermaid, The (1989) 
Autor Zpráva
Private 1 st class
Private 1 st class

Registrován: 16 kvě 2009, 16:08
Příspěvky: 35
Příspěvek Malá mořská víla / Little Mermaid, The (1989)

Malá mořská víla / Little Mermaid, The (1989)

Malá mořská víla / Little Mermaid, The (1989)

Dcera krále moří se jmenuje Ariel, je jí šestnáct let a je zamilovaná do prince Erika, kterému zachránila život, když jeho loď ztroskotala v bouři. Protože vládce podmořské říše nemá pro náklonnost své dcery k lidem pochopení, musí se Ariel obrátit se žádostí o pomoc na zlou čarodějnici. Ta ji na tři dny přičaruje nohy pod podmínkou, že jí víla daruje svůj krásný hlas. A ještě je tu jeden háček pokud princ dívku do tří dnů z lásky nepolíbí, stane se z ní opět mořská panna s ploutví a její duše navěky propadne zlé čarodějnici. Bůhví jak by to dopadlo, kdyby Ariel nepomáhali její legrační přátelé krab, racek a rybka

Jazyk: Český 2.0
Kvalita videa: h.263, 1280x720, 1 998 Kbps
Titulky: Nejsou
Rok vydání: USA, 1989
Délka: 80 minut
Žánr: Animovaný / Rodinný / Romantický / Muzikál

Jen registrovaní uživatelé mohou vidět odkazy v code. Přihlaste se nebo zaregistrujte ZDARMA.


General
Complete name: Malá mořská víla - The Little Mermaid (1989).avi
Format: AVI
Format/Info: Audio Video Interleave
Format profile: OpenDML
File size: 1.18 GiB
Duration: 1h 19mn
Overall bit rate mode: Variable
Overall bit rate: 2 138 Kbps
Writing application: MEncoder Sherpya-SVN-r32492-4.2.5
Writing library: MPlayer

Video
ID: 0
Format: MPEG-4 Visual
Format profile: [email protected]
Format settings, BVOP: No
Format settings, QPel: No
Format settings, GMC: No warppoints
Format settings, Matrix: Default (H.263)
Codec ID: XVID
Codec ID/Hint: XviD
Duration: 1h 19mn
Bit rate: 1 998 Kbps
Width: 1 280 pixels
Height: 720 pixels
Display aspect ratio: 16:9
Frame rate: 30.000 fps
Color space: YUV
Chroma subsampling: 4:2:0
Bit depth: 8 bits
Scan type: Progressive
Compression mode: Lossy
Bits/(Pixel*Frame): 0.072
Stream size: 1.11 GiB (93%)
Writing library: XviD 1.2.1 (UTC 2008-12-04)

Audio
ID: 1
Format: MPEG Audio
Format version: Version 1
Format profile: Layer 3
Mode: Joint stereo
Mode extension: MS Stereo
Codec ID: 55
Codec ID/Hint: MP3
Duration: 1h 19mn
Bit rate mode: Variable
Bit rate: 124 Kbps
Channel(s): 2 channels
Sampling rate: 44.1 KHz
Compression mode: Lossy
Stream size: 70.2 MiB (6%)
Alignment: Aligned on interleaves
Interleave, duration: 26 ms (0.78 video frame)
Interleave, preload duration: 185 ms

)..(
Jen registrovaní uživatelé mohou vidět odkazy v code. Přihlaste se nebo zaregistrujte ZDARMA.


)..(
Jen registrovaní uživatelé mohou vidět odkazy v code. Přihlaste se nebo zaregistrujte ZDARMA.



http://img90.imageshack.us/img90/1812/arielsw1.jpg


29 pro 2012, 17:37
Profil
Zobrazit příspěvky za předchozí:  Seřadit podle  
Odeslat nové téma Odpovědět na téma  [ Příspěvek: 1 ] 

Všechny časy jsou v UTC + 1 hodina


Nemůžete zakládat nová témata v tomto fóru
Nemůžete odpovídat v tomto fóru
Nemůžete upravovat své příspěvky v tomto fóru
Nemůžete mazat své příspěvky v tomto fóru
Nemůžete přikládat soubory v tomto fóru









StahovaniZaSMS Pizza Modena MP3 free download