fastshare
Swordsman 2 - Xiao ao jiang hu zhi dong fang bu bai (1991)
Vypnout statistiky
KATEGORIEPOSLEDNÍ PŘÍSPĚVKYPOSLEDNÍ OZNÁMENÍSTATISTIKY UŽIVATELE
Nick: Anonymous
Příspěvků: 2286
Hodnost: Warman
Varování: 0
---
Právě je 14 srp 2022, 11:28





Všechny časy jsou v UTC + 1 hodina


Pravidla fóra







Odeslat nové téma Odpovědět na téma  [ Příspěvek: 1 ] 
 Swordsman 2 - Xiao ao jiang hu zhi dong fang bu bai (1991) 
Autor Zpráva
Corporal
Corporal
Uživatelský avatar

Registrován: 15 říj 2008, 05:49
Příspěvky: 75
Bydliště: Plzensko
Příspěvek Swordsman 2 - Xiao ao jiang hu zhi dong fang bu bai (1991)

Swordsman 2 - Xiao ao jiang hu zhi dong fang bu bai

Swordsman 2 - Xiao ao jiang hu zhi dong fang bu bai (1991)

Akční / Fantasy

Hong Kong, 1991, 110 min
Režie: Siu - Tung Ching
Hrají: Jet Li, Brigitte Lin, Rosamund Kwan, Yee Kwan Yan, Audrey Wasilewski, Michelle Reis

Posvátné knihy obsahující návod na ovládnutí těch nejdokonalejších technik bojového umění se zmocnil zrádný Dron, který jejího vlastnictví využil k ovládnutí celé Číny. Jediný, kdo mu může tyto plány překazit, je zdatný bojovník Lin (Jet Li) se svými bratry. Budou ale jeho schopnosti stačit na muže, jenž drží v ruce klíč k těm nejlepším bojovým metodám? Pokračování legendárního filmu obsahuje vše, co z prvního dílu udělalo nesmrtelnou legendu.

Jen registrovaní uživatelé mohou vidět odkazy v code. Přihlaste se nebo zaregistrujte ZDARMA.


Format : AVI
Format/Info : Audio Video Interleave
File size : 777 MiB
Duration : 1h 44mn
Overall bit rate : 1 042 Kbps
Writing application : MEncoder UNKNOWN-4.2.4
Writing library : MPlayer

Video
ID : 0
Format : MPEG-4 Visual
Format profile : [email protected]
Format settings, BVOP : No
Format settings, QPel : No
Format settings, GMC : No warppoints
Format settings, Matrix : Default (H.263)
Codec ID : XVID
Codec ID/Hint : XviD
Duration : 1h 44mn
Bit rate : 901 Kbps
Width : 720 pixels
Height : 576 pixels
Display aspect ratio : 16/9
Frame rate : 25.000 fps
Standard : PAL
Resolution : 24 bits
Colorimetry : 4:2:0
Scan type : Progressive
Bits/(Pixel*Frame) : 0.087
Stream size : 672 MiB (86%)
Writing library : XviD 1.2.1 (UTC 2008-12-04)

Audio
ID : 1
Format : MPEG Audio
Format version : Version 1
Format profile : Layer 3
Codec ID : 55
Codec ID/Hint : MP3
Duration : 1h 44mn
Bit rate mode : Constant
Bit rate : 128 Kbps
Channel(s) : 2 channels
Sampling rate : 48.0 KHz
Resolution : 16 bits
Stream size : 95.5 MiB (12%)
Alignment : Aligned on interleaves
Interleave, duration : 24 ms (0.60 video frame)
Interleave, preload duration : 504 ms
Writing library : LAME3.98

Jen registrovaní uživatelé mohou vidět odkazy v code. Přihlaste se nebo zaregistrujte ZDARMA.


15 úno 2011, 18:07
Profil
Zobrazit příspěvky za předchozí:  Seřadit podle  
Odeslat nové téma Odpovědět na téma  [ Příspěvek: 1 ] 

Všechny časy jsou v UTC + 1 hodina


Nemůžete zakládat nová témata v tomto fóru
Nemůžete odpovídat v tomto fóru
Nemůžete upravovat své příspěvky v tomto fóru
Nemůžete mazat své příspěvky v tomto fóru
Nemůžete přikládat soubory v tomto fóru









StahovaniZaSMS Pizza Modena MP3 free download