fastshare
Můj přítel delfín / Dolphin tale (2011)
Vypnout statistiky
KATEGORIEPOSLEDNÍ PŘÍSPĚVKYPOSLEDNÍ OZNÁMENÍSTATISTIKY UŽIVATELE
Nick: Anonymous
Příspěvků: 2286
Hodnost: Warman
Varování: 0
---
Právě je 14 srp 2022, 23:04





Všechny časy jsou v UTC + 1 hodina


Pravidla fóra







Odeslat nové téma Odpovědět na téma  [ Příspěvků: 18 ]  Přejít na stránku 1, 2  Další
 Můj přítel delfín / Dolphin tale (2011) 
Autor Zpráva
Colonel 5 th class
Colonel 5 th class

Registrován: 21 črc 2009, 11:51
Příspěvky: 718
Příspěvek Můj přítel delfín / Dolphin tale (2011)

Dolphin Tale / 2011
Můj přítel delfín / Dolphin tale (2011)

Můj přítel delfín / Dolphin tale (2011)
Jen registrovaní uživatelé mohou vidět odkazy v code. Přihlaste se nebo zaregistrujte ZDARMA.



Můj přítel delfín / Dolphin tale (2011)
GENERAL DVDRip
Citace:
Format : AVI
Format/Info : Audio Video Interleave
File size : 703 MiB
Duration : 1h 52mn
Overall bit rate : 872 Kbps
Writing application : VirtualDubMod 1.5.10.1 (build 2366/release)
Writing library : VirtualDubMod build 2366/release

Video
ID : 0
Format : MPEG-4 Visual
Format profile : Advanced [email protected]
Format settings, BVOP : 1
Format settings, QPel : No
Format settings, GMC : No warppoints
Format settings, Matrix : Default (H.263)
Codec ID : XVID
Codec ID/Hint : XviD
Duration : 1h 52mn
Bit rate : 735 Kbps
Width : 624 pixels
Height : 352 pixels
Display aspect ratio : 16:9
Frame rate : 23.976 fps
Color space : YUV
Chroma subsampling : 4:2:0
Bit depth : 8 bits
Scan type : Progressive
Compression mode : Lossy
Bits/(Pixel*Frame) : 0.140
Stream size : 593 MiB (84%)
Writing library : XviD 1.2.1 (UTC 2008-12-04)

Audio
ID : 1
Format : MPEG Audio
Format version : Version 1
Format profile : Layer 3
Mode : Joint stereo
Mode extension : MS Stereo
Codec ID : 55
Codec ID/Hint : MP3
Duration : 1h 52mn
Bit rate mode : Constant
Bit rate : 128 Kbps
Channel(s) : 2 channels
Sampling rate : 48.0 KHz
Compression mode : Lossy
Stream size : 103 MiB (15%)
Alignment : Aligned on interleaves
Interleave, duration : 42 ms (1.00 video frame)
Interleave, preload duration : 504 ms
Writing library : LAME3.98.2




Můj přítel delfín / Dolphin tale (2011)
Jen registrovaní uživatelé mohou vidět odkazy v code. Přihlaste se nebo zaregistrujte ZDARMA.


Můj přítel delfín / Dolphin tale (2011)
Jen registrovaní uživatelé mohou vidět odkazy v code. Přihlaste se nebo zaregistrujte ZDARMA.


Můj přítel delfín / Dolphin tale (2011)
Jen registrovaní uživatelé mohou vidět odkazy v code. Přihlaste se nebo zaregistrujte ZDARMA.



Můj přítel delfín / Dolphin tale (2011)
Jen registrovaní uživatelé mohou vidět odkazy v code. Přihlaste se nebo zaregistrujte ZDARMA.


Můj přítel delfín / Dolphin tale (2011)
Jen registrovaní uživatelé mohou vidět odkazy v code. Přihlaste se nebo zaregistrujte ZDARMA.



21 pro 2011, 07:59
Profil
Colonel 4 th class
Colonel 4 th class
Uživatelský avatar

Registrován: 27 kvě 2009, 18:15
Příspěvky: 568
Příspěvek Re: Můj přítel delfín / Dolphin tale (2011)

Dolphin Tale (2011) DVDRip.XviD.CZ-BkR / DVDRip CZ

Re: Můj přítel delfín / Dolphin tale (2011)
Re: Můj přítel delfín / Dolphin tale (2011)


###iNFO###

Jen registrovaní uživatelé mohou vidět odkazy v code. Přihlaste se nebo zaregistrujte ZDARMA.


###iNFO TECH.###

Jen registrovaní uživatelé mohou vidět odkazy v code. Přihlaste se nebo zaregistrujte ZDARMA.


Re: Můj přítel delfín / Dolphin tale (2011)

Jen registrovaní uživatelé mohou vidět odkazy v code. Přihlaste se nebo zaregistrujte ZDARMA.


Re: Můj přítel delfín / Dolphin tale (2011)


Jen registrovaní uživatelé mohou vidět odkazy v code. Přihlaste se nebo zaregistrujte ZDARMA.


21 pro 2011, 08:16
Profil
Captain
Captain

Registrován: 12 bře 2010, 07:59
Příspěvky: 252
Příspěvek Re: Můj přítel delfín / Dolphin tale (2011)

Dolphin Tale (2011)

Re: Můj přítel delfín / Dolphin tale (2011)

Dolphin.Tale.2011.DVDRip.XviD.CZ-CiBULATOR679

Jen registrovaní uživatelé mohou vidět odkazy v code. Přihlaste se nebo zaregistrujte ZDARMA.


Drama
USA, 2011, 113 min

Režie:
Charles Martin Smith
Hudba:
Mark Isham
Hrají:
Morgan Freeman, Ashley Judd, Harry Connick Jr., Frances Sternhagen, Kris Kristofferson, Ray McKinnon, Nathan Gamble

Malý chlapec se skamarádí s Winterem, což je zraněný delfín, který přišel o svůj ocas v krabí pasti. Chlapec každého kolem sebe motivuje, aby Winterovi pomohl tím, že mu vytvoří umělý ocas. Harry Connick ml. hraje veterináře, který tohoto savce zachrání a přinese ho do své námořní nemocnice. Ashley Judd hraje chlapcovu matku a Morgan Freeman doktora, který pro Wintera onen umělý ocas vytvoří.

FORMAT : AVI
CODEC : XviD
RESOLUTiON : 624x352
ViDEO : 735 Kbps
AUDiO : 128 Kbps MP3 2CH
LANGUAGE : Czech
SiZE : 703 MB



Jen registrovaní uživatelé mohou vidět odkazy v code. Přihlaste se nebo zaregistrujte ZDARMA.

Jen registrovaní uživatelé mohou vidět odkazy v code. Přihlaste se nebo zaregistrujte ZDARMA.

Jen registrovaní uživatelé mohou vidět odkazy v code. Přihlaste se nebo zaregistrujte ZDARMA.

Jen registrovaní uživatelé mohou vidět odkazy v code. Přihlaste se nebo zaregistrujte ZDARMA.

Jen registrovaní uživatelé mohou vidět odkazy v code. Přihlaste se nebo zaregistrujte ZDARMA.

Jen registrovaní uživatelé mohou vidět odkazy v code. Přihlaste se nebo zaregistrujte ZDARMA.

Jen registrovaní uživatelé mohou vidět odkazy v code. Přihlaste se nebo zaregistrujte ZDARMA.

Jen registrovaní uživatelé mohou vidět odkazy v code. Přihlaste se nebo zaregistrujte ZDARMA.



Bez hesla ..


Naposledy upravil robukos dne 21 pro 2011, 09:22, celkově upraveno 1

21 pro 2011, 08:41
Profil
Lieutenant
Lieutenant

Registrován: 17 zář 2011, 14:32
Příspěvky: 237
Příspěvek Re: Můj přítel delfín / Dolphin tale (2011)

Dolphin Tale (2011)

Re: Můj přítel delfín / Dolphin tale (2011)

Re: Můj přítel delfín / Dolphin tale (2011)
Jen registrovaní uživatelé mohou vidět odkazy v code. Přihlaste se nebo zaregistrujte ZDARMA.

Citace:
Drama
USA, 2011
Režie:
Charles Martin Smith
Hudba:
Mark Isham
Hrají:
Morgan Freeman, Ashley Judd, Harry Connick Jr., Frances Sternhagen, Kris Kristofferson, Ray McKinnon, Nathan Gamble

Malý chlapec se skamarádí s Winterem, což je zraněný delfín, který přišel o svůj ocas v krabí pasti. Chlapec každého kolem sebe motivuje, aby Winterovi pomohl tím, že mu vytvoří umělý ocas. Harry Connick ml. hraje veterináře, který tohoto savce zachrání a přinese ho do své námořní nemocnice. Ashley Judd hraje chlapcovu matku a Morgan Freeman doktora, který pro Wintera onen umělý ocas vytvoří.

Re: Můj přítel delfín / Dolphin tale (2011)
RLS:Dolphin.Tale.2011.DVDRip.XviD.CZ-CiBULATOR679
Citace:
Format : AVI
Format/Info : Audio Video Interleave
File size : 703 MiB
Duration : 1h 52mn
Overall bit rate : 872 Kbps
Writing application : VirtualDubMod 1.5.10.1 (build 2366/release)
Writing library : VirtualDubMod build 2366/release

Video
ID : 0
Format : MPEG-4 Visual
Format profile : Advanced [email protected]
Format settings, BVOP : 1
Format settings, QPel : No
Format settings, GMC : No warppoints
Format settings, Matrix : Default (H.263)
Codec ID : XVID
Codec ID/Hint : XviD
Duration : 1h 52mn
Bit rate : 735 Kbps
Width : 624 pixels
Height : 352 pixels
Display aspect ratio : 16:9
Frame rate : 23.976 fps
Color space : YUV
Chroma subsampling : 4:2:0
Bit depth : 8 bits
Scan type : Progressive
Compression mode : Lossy
Bits/(Pixel*Frame) : 0.140
Stream size : 593 MiB (84%)
Writing library : XviD 1.2.1 (UTC 2008-12-04)

Audio
ID : 1
Format : MPEG Audio
Format version : Version 1
Format profile : Layer 3
Mode : Joint stereo
Mode extension : MS Stereo
Codec ID : 55
Codec ID/Hint : MP3
Duration : 1h 52mn
Bit rate mode : Constant
Bit rate : 128 Kbps
Channel(s) : 2 channels
Sampling rate : 48.0 KHz
Compression mode : Lossy
Stream size : 103 MiB (15%)
Alignment : Aligned on interleaves
Interleave, duration : 42 ms (1.00 video frame)
Interleave, preload duration : 504 ms
Writing library : LAME3.98.2


Re: Můj přítel delfín / Dolphin tale (2011)

Re: Můj přítel delfín / Dolphin tale (2011)
Jen registrovaní uživatelé mohou vidět odkazy v code. Přihlaste se nebo zaregistrujte ZDARMA.


Re: Můj přítel delfín / Dolphin tale (2011)

Re: Můj přítel delfín / Dolphin tale (2011)
Jen registrovaní uživatelé mohou vidět odkazy v code. Přihlaste se nebo zaregistrujte ZDARMA.


Re: Můj přítel delfín / Dolphin tale (2011)

Re: Můj přítel delfín / Dolphin tale (2011)

Jen registrovaní uživatelé mohou vidět odkazy v code. Přihlaste se nebo zaregistrujte ZDARMA.


Re: Můj přítel delfín / Dolphin tale (2011)

Re: Můj přítel delfín / Dolphin tale (2011)

Jen registrovaní uživatelé mohou vidět odkazy v code. Přihlaste se nebo zaregistrujte ZDARMA.


Re: Můj přítel delfín / Dolphin tale (2011)


21 pro 2011, 08:50
Profil
Warrant
Warrant

Registrován: 19 čer 2011, 16:40
Příspěvky: 174
Příspěvek Re: Můj přítel delfín / Dolphin tale (2011)

Dolphin.Tale.2011.DVDRip.XviD.CZ-CiBULATOR679
Re: Můj přítel delfín / Dolphin tale (2011)

Jen registrovaní uživatelé mohou vidět odkazy v code. Přihlaste se nebo zaregistrujte ZDARMA.


Jen registrovaní uživatelé mohou vidět odkazy v code. Přihlaste se nebo zaregistrujte ZDARMA.


Jen registrovaní uživatelé mohou vidět odkazy v code. Přihlaste se nebo zaregistrujte ZDARMA.


21 pro 2011, 13:53
Profil
Sergeant
Sergeant

Registrován: 04 kvě 2007, 20:27
Příspěvky: 97
Příspěvek Re: Můj přítel delfín / Dolphin tale (2011)

Můj přítel delfín / Dolphin tale (2011)

Re: Můj přítel delfín / Dolphin tale (2011)

csfd: http://www.csfd.cz/film/282510-dolphin-tale/

Drama

USA, 2011, 113 min
Režie:
Charles Martin Smith
Hudba:
Mark Isham
Hrají:
Morgan Freeman, Ashley Judd, Harry Connick Jr., Frances Sternhagen, Kris Kristofferson, Ray McKinnon, Nathan Gamble

Malý chlapec se skamarádí s Winterem, což je zraněný delfín, který přišel o svůj ocas v krabí pasti. Chlapec každého kolem sebe motivuje, aby Winterovi pomohl tím, že mu vytvoří umělý ocas. Harry Connick ml. hraje veterináře, který tohoto savce zachrání a přinese ho do své námořní nemocnice. Ashley Judd hraje chlapcovu matku a Morgan Freeman doktora, který pro Wintera onen umělý ocas vytvoří

kvalita:

Format : AVI
Format/Info : Audio Video Interleave
File size : 703 MiB
Duration : 1h 52mn
Overal bit rate : 872 Kbps
Writing application : VirtualDubMod 1.5.10.1 (build 2366/release)
Writing library : VirtualDubMod build 2366/release

Video
Format : MPEG-4 Visual
Format profile : Streaming [email protected]
Format settings, BVOP : Yes
Format settings, QPel : No
Format settings, GMC : No warpoints
Format settings, Matrix : Default
Codec ID : XVID
Codec ID/Hint : XviD
Duration : 1h 52mn
Bit rate : 735 Kbps
Width : 624 pixels
Height : 352 pixels
Display aspect ratio : 16/9
Frame rate : 23.976 fps
Resolution : 8 bits
Colorimetry : 4:2:0
Scan type : Progressive
Bits/(Pixel*Frame) : 0.140
Stream size : 593 MiB
Writing library : XviD 50

Audio
Format : MPEG Audio
Format version : Version 1
Format profile : Layer 3
Codec ID : 55
Codec ID/Hint : MP3
Duration : 1h 52mn
Bit rate mode : Constant
Bit rate : 128 Kbps
Channel(s) : 2 channels
Sampling rate : 48.0 KHz
Resolution : 16 bits
Stream size : 103 MiB
Writing library : LAME3.98.2

download:

Jen registrovaní uživatelé mohou vidět odkazy v code. Přihlaste se nebo zaregistrujte ZDARMA.


Naposledy upravil ladan dne 22 pro 2011, 13:45, celkově upraveno 1
Zrušeno centrování obsahu


21 pro 2011, 13:59
Profil
Colonel 3 rd class
Colonel 3 rd class

Registrován: 06 úno 2011, 19:29
Příspěvky: 479
Příspěvek Re: Můj přítel delfín / Dolphin tale (2011)

Můj přítel delfín / Dolphin tale (2011)
Uploaded By - Europa2 | Enjoy and say Thanks !!

Re: Můj přítel delfín / Dolphin tale (2011)

Re: Můj přítel delfín / Dolphin tale (2011)

http://www.csfd.cz/film/282510

Drama

USA, 2011, 113 min
Režie:
Charles Martin Smith
Hudba:
Mark Isham
Hrají:
Morgan Freeman, Ashley Judd, Harry Connick Jr., Frances Sternhagen, Kris Kristofferson, Ray McKinnon, Nathan Gamble


Obsah:

Malý chlapec se skamarádí s Winterem, což je zraněný delfín, který přišel o svůj ocas v krabí pasti. Chlapec každého kolem sebe motivuje, aby Winterovi pomohl tím, že mu vytvoří umělý ocas. Harry Connick ml. hraje veterináře, který tohoto savce zachrání a přinese ho do své námořní nemocnice. Ashley Judd hraje chlapcovu matku a Morgan Freeman doktora, který pro Wintera onen umělý ocas vytvoří.

Kvalita:

Format : AVI at 872 Kbps
Length : 703 MiB for 1h 52mn 41s 4ms

Video #0 : MPEG-4 Visual at 735 Kbps
Aspect : 624 x 352 (1.773) at 23.976 fps

Audio #0 : MPEG Audio at 128 Kbps
Infos : 2 kanály, 48,0 KHz


Re: Můj přítel delfín / Dolphin tale (2011)

HellShare.sk

Jen registrovaní uživatelé mohou vidět odkazy v code. Přihlaste se nebo zaregistrujte ZDARMA.

No Pass


21 pro 2011, 16:54
Profil
Colonel
Colonel
Uživatelský avatar

Registrován: 17 črc 2010, 13:14
Příspěvky: 377
Příspěvek Re: Můj přítel delfín / Dolphin tale (2011)

Dolphin Tale (2011) DVDRipCz

Re: Můj přítel delfín / Dolphin tale (2011)

Csfd:73%
Jen registrovaní uživatelé mohou vidět odkazy v code. Přihlaste se nebo zaregistrujte ZDARMA.



Obsah
Malý chlapec se skamarádí s Winterem, což je zraněný delfín, který přišel o svůj ocas v krabí pasti. Chlapec každého kolem sebe motivuje, aby Winterovi pomohl tím, že mu vytvoří umělý ocas. Harry Connick ml. hraje veterináře, který tohoto savce zachrání a přinese ho do své námořní nemocnice. Ashley Judd hraje chlapcovu matku a Morgan Freeman doktora, který pro Wintera onen umělý ocas vytvoří.


Info
Jméno Souboru : Dolphin.TaleFP.2011.avi
Velikost souboru : 703 Mb.

[Film]
Platnost : Ano [AVI]
Délka : 01:52:40
Kompletní film : Ano

[Video]
Rozlišení : 624x352
Kodek : XviD MPEG-4 codec
FPS : 23,98
BitRate : 744 Kbps
Faktor kvality : 0,14 b/px

[Audio]
Kodek : MPEG 1 or 2 Audio Layer 3 (MP3)
Počet kanálů : 2
Samplovací frekvence : 48000 Hz
BitRate : 128 Kbps


Jazyk:Cz

Screens

Re: Můj přítel delfín / Dolphin tale (2011)

Download:

Re: Můj přítel delfín / Dolphin tale (2011)
Jen registrovaní uživatelé mohou vidět odkazy v code. Přihlaste se nebo zaregistrujte ZDARMA.


Bez hesla


21 pro 2011, 17:06
Profil
Příspěvek Re: Můj přítel delfín / Dolphin tale (2011)

Dolphin Tale (2011)

Re: Můj přítel delfín / Dolphin tale (2011)

Jen registrovaní uživatelé mohou vidět odkazy v code. Přihlaste se nebo zaregistrujte ZDARMA.


Malý chlapec se skamarádí s Winterem, což je zraněný delfín, který přišel o svůj ocas v krabí pasti. Chlapec každého kolem sebe motivuje, aby Winterovi pomohl tím, že mu vytvoří umělý ocas. Harry Connick ml. hraje veterináře, který tohoto savce zachrání a přinese ho do své námořní nemocnice. Ashley Judd hraje chlapcovu matku a Morgan Freeman doktora, který pro Wintera onen umělý ocas vytvoří.

Drama
USA, 2011, 113 min
Režie: Charles Martin Smith
Hudba: Mark Isham
Hrají: Morgan Freeman, Ashley Judd, Harry Connick Jr., Frances Sternhagen, Kris Kristofferson, Ray McKinnon, Nathan Gamble

Dolphin.Tale.2011.DVDRip.XviD.CZ-V!sAGe
Jen registrovaní uživatelé mohou vidět odkazy v code. Přihlaste se nebo zaregistrujte ZDARMA.


Re: Můj přítel delfín / Dolphin tale (2011)
Jen registrovaní uživatelé mohou vidět odkazy v code. Přihlaste se nebo zaregistrujte ZDARMA.

Re: Můj přítel delfín / Dolphin tale (2011)
Jen registrovaní uživatelé mohou vidět odkazy v code. Přihlaste se nebo zaregistrujte ZDARMA.

Re: Můj přítel delfín / Dolphin tale (2011)
Jen registrovaní uživatelé mohou vidět odkazy v code. Přihlaste se nebo zaregistrujte ZDARMA.

Re: Můj přítel delfín / Dolphin tale (2011)
Jen registrovaní uživatelé mohou vidět odkazy v code. Přihlaste se nebo zaregistrujte ZDARMA.




**************************************************



Dolphin.Tale.2011.DVDRip.XviD.AC3.CZ-V!sAGe
Jen registrovaní uživatelé mohou vidět odkazy v code. Přihlaste se nebo zaregistrujte ZDARMA.


Re: Můj přítel delfín / Dolphin tale (2011)
Jen registrovaní uživatelé mohou vidět odkazy v code. Přihlaste se nebo zaregistrujte ZDARMA.

Re: Můj přítel delfín / Dolphin tale (2011)
Jen registrovaní uživatelé mohou vidět odkazy v code. Přihlaste se nebo zaregistrujte ZDARMA.

Re: Můj přítel delfín / Dolphin tale (2011)
Jen registrovaní uživatelé mohou vidět odkazy v code. Přihlaste se nebo zaregistrujte ZDARMA.

Re: Můj přítel delfín / Dolphin tale (2011)
Jen registrovaní uživatelé mohou vidět odkazy v code. Přihlaste se nebo zaregistrujte ZDARMA.

Re: Můj přítel delfín / Dolphin tale (2011)
Jen registrovaní uživatelé mohou vidět odkazy v code. Přihlaste se nebo zaregistrujte ZDARMA.

Re: Můj přítel delfín / Dolphin tale (2011)
Jen registrovaní uživatelé mohou vidět odkazy v code. Přihlaste se nebo zaregistrujte ZDARMA.


21 pro 2011, 18:11
Private 1 st class
Private 1 st class

Registrován: 18 led 2011, 21:02
Příspěvky: 24
Příspěvek Re: Můj přítel delfín / Dolphin tale (2011)

Re: Můj přítel delfín / Dolphin tale (2011)
Dolphin Tale (2011)

Re: Můj přítel delfín / Dolphin tale (2011)
Dolphin.Tale.2011.DVDRip.XviD.CZ-CiBULATOR679

Re: Můj přítel delfín / Dolphin tale (2011)
Re: Můj přítel delfín / Dolphin tale (2011)

Re: Můj přítel delfín / Dolphin tale (2011)
Jen registrovaní uživatelé mohou vidět odkazy v code. Přihlaste se nebo zaregistrujte ZDARMA.


Re: Můj přítel delfín / Dolphin tale (2011)
Jen registrovaní uživatelé mohou vidět odkazy v code. Přihlaste se nebo zaregistrujte ZDARMA.


Re: Můj přítel delfín / Dolphin tale (2011)
Re: Můj přítel delfín / Dolphin tale (2011)

Re: Můj přítel delfín / Dolphin tale (2011)
Jen registrovaní uživatelé mohou vidět odkazy v code. Přihlaste se nebo zaregistrujte ZDARMA.


Re: Můj přítel delfín / Dolphin tale (2011)


21 pro 2011, 20:10
Profil
Corporal
Corporal

Registrován: 21 bře 2008, 21:12
Příspěvky: 57
Příspěvek Re: Můj přítel delfín / Dolphin tale (2011)

Dolphin.Tale.2011.DVDRip.XviD.CZ
Re: Můj přítel delfín / Dolphin tale (2011)

Info :
Jen registrovaní uživatelé mohou vidět odkazy v code. Přihlaste se nebo zaregistrujte ZDARMA.

Jen registrovaní uživatelé mohou vidět odkazy v code. Přihlaste se nebo zaregistrujte ZDARMA.


Download :
Jen registrovaní uživatelé mohou vidět odkazy v code. Přihlaste se nebo zaregistrujte ZDARMA.


22 pro 2011, 21:55
Profil
Corporal
Corporal

Registrován: 12 led 2011, 12:33
Příspěvky: 76
Příspěvek Re: Můj přítel delfín / Dolphin tale (2011)

Dolphin.Tale.2011.DVDrip.DivX.AC3.CZ-Starcross
Dolphin.Tale.2011.DVDRip.XviD.AC3.CZ-V!sAGe

    Re: Můj přítel delfín / Dolphin tale (2011)

Re: Můj přítel delfín / Dolphin tale (2011)
Jen registrovaní uživatelé mohou vidět odkazy v code. Přihlaste se nebo zaregistrujte ZDARMA.


Re: Můj přítel delfín / Dolphin tale (2011)
Jen registrovaní uživatelé mohou vidět odkazy v code. Přihlaste se nebo zaregistrujte ZDARMA.

Jen registrovaní uživatelé mohou vidět odkazy v code. Přihlaste se nebo zaregistrujte ZDARMA.



Re: Můj přítel delfín / Dolphin tale (2011)
Jen registrovaní uživatelé mohou vidět odkazy v code. Přihlaste se nebo zaregistrujte ZDARMA.


Jen registrovaní uživatelé mohou vidět odkazy v code. Přihlaste se nebo zaregistrujte ZDARMA.

V případě mrtvých linků, dotazu či jiného problému použij prosím PM.


Naposledy upravil czepa89 dne 23 pro 2011, 01:15, celkově upraveno 2

22 pro 2011, 23:19
Profil
Uploader
Uploader
Uživatelský avatar

Registrován: 16 led 2010, 03:36
Příspěvky: 722
Příspěvek Re: Můj přítel delfín / Dolphin tale (2011)

Dolphin Tale (2011)
rel.Dolphin.Tale.2011.DVDRip.XviD.CZ-CiBULATOR679

Re: Můj přítel delfín / Dolphin tale (2011)

Re: Můj přítel delfín / Dolphin tale (2011)
Re: Můj přítel delfín / Dolphin tale (2011)

Re: Můj přítel delfín / Dolphin tale (2011)
Jen registrovaní uživatelé mohou vidět odkazy v code. Přihlaste se nebo zaregistrujte ZDARMA.

Re: Můj přítel delfín / Dolphin tale (2011)

Drama
USA, 2011, 113 min

Malý chlapec se skamarádí s Winterem, což je zraněný delfín, který přišel o svůj ocas v krabí pasti. Chlapec každého kolem sebe motivuje, aby Winterovi pomohl tím, že mu vytvoří umělý ocas. Harry Connick ml. hraje veterináře, který tohoto savce zachrání a přinese ho do své námořní nemocnice. Ashley Judd hraje chlapcovu matku a Morgan Freeman doktora, který pro Wintera onen umělý ocas vytvoří.

Jen registrovaní uživatelé mohou vidět odkazy v code. Přihlaste se nebo zaregistrujte ZDARMA.



Re: Můj přítel delfín / Dolphin tale (2011)

Re: Můj přítel delfín / Dolphin tale (2011)
Jen registrovaní uživatelé mohou vidět odkazy v code. Přihlaste se nebo zaregistrujte ZDARMA.

Re: Můj přítel delfín / Dolphin tale (2011)
Jen registrovaní uživatelé mohou vidět odkazy v code. Přihlaste se nebo zaregistrujte ZDARMA.

Re: Můj přítel delfín / Dolphin tale (2011)
Jen registrovaní uživatelé mohou vidět odkazy v code. Přihlaste se nebo zaregistrujte ZDARMA.

Re: Můj přítel delfín / Dolphin tale (2011)
Jen registrovaní uživatelé mohou vidět odkazy v code. Přihlaste se nebo zaregistrujte ZDARMA.

Re: Můj přítel delfín / Dolphin tale (2011)
Jen registrovaní uživatelé mohou vidět odkazy v code. Přihlaste se nebo zaregistrujte ZDARMA.

Re: Můj přítel delfín / Dolphin tale (2011)
Jen registrovaní uživatelé mohou vidět odkazy v code. Přihlaste se nebo zaregistrujte ZDARMA.



Re: Můj přítel delfín / Dolphin tale (2011)

Citace:
V prípade problému ma vždy kontaktuje cez SS/PM !!
Moje uploady sú VŽDY balené programom WinRAR !!
Moje uploady sú VŽDY bez hesla!!
Tlačítko ďakujem alebo iné poďakovanie vždy poteší !!
Za Power Uploaders pre Vás nahral Delfin !!!


Naposledy upravil Delfin29 dne 31 pro 2011, 14:03, celkově upraveno 1

27 pro 2011, 14:09
Profil
Colonel
Colonel
Uživatelský avatar

Registrován: 04 led 2008, 11:56
Příspěvky: 368
Příspěvek Re: Můj přítel delfín / Dolphin tale (2011)

Dolphin Tale (2011)

Dolphin Tale (2011(

Re: Můj přítel delfín / Dolphin tale (2011)

Re: Můj přítel delfín / Dolphin tale (2011)

Jen registrovaní uživatelé mohou vidět odkazy v code. Přihlaste se nebo zaregistrujte ZDARMA.


Jen registrovaní uživatelé mohou vidět odkazy v code. Přihlaste se nebo zaregistrujte ZDARMA.


linky:

multishare,uloz.to:

Jen registrovaní uživatelé mohou vidět odkazy v code. Přihlaste se nebo zaregistrujte ZDARMA.


02 led 2012, 11:05
Profil
Corporal
Corporal

Registrován: 20 úno 2009, 23:59
Příspěvky: 62
Příspěvek Re: Můj přítel delfín / Dolphin tale (2011)

Re: Můj přítel delfín / Dolphin tale (2011)

Jen registrovaní uživatelé mohou vidět odkazy v code. Přihlaste se nebo zaregistrujte ZDARMA.


Format : AVI
Format/Info : Audio Video Interleave
File size : 703 MiB
Duration : 1h 52mn
Overall bit rate : 872 Kbps
Writing application : VirtualDubMod 1.5.10.1 (build 2366/release)
Writing library : VirtualDubMod build 2366/release

Video
ID : 0
Format : MPEG-4 Visual
Format profile : Advanced [email protected]
Format settings, BVOP : 1
Format settings, QPel : No
Format settings, GMC : No warppoints
Format settings, Matrix : Default (H.263)
Codec ID : XVID
Codec ID/Hint : XviD
Duration : 1h 52mn
Bit rate : 735 Kbps
Width : 624 pixels
Height : 352 pixels
Display aspect ratio : 16:9
Frame rate : 23.976 fps
Color space : YUV
Chroma subsampling : 4:2:0
Bit depth : 8 bits
Scan type : Progressive
Compression mode : Lossy
Bits/(Pixel*Frame) : 0.140
Stream size : 593 MiB (84%)
Writing library : XviD 1.2.1 (UTC 2008-12-04)

Audio
ID : 1
Format : MPEG Audio
Format version : Version 1
Format profile : Layer 3
Mode : Joint stereo
Mode extension : MS Stereo
Codec ID : 55
Codec ID/Hint : MP3
Duration : 1h 52mn
Bit rate mode : Constant
Bit rate : 128 Kbps
Channel(s) : 2 channels
Sampling rate : 48.0 KHz
Compression mode : Lossy
Stream size : 103 MiB (15%)
Alignment : Aligned on interleaves
Interleave, duration : 42 ms (1.00 video frame)
Interleave, preload duration : 504 ms
Writing library : LAME3.98.2



Jen registrovaní uživatelé mohou vidět odkazy v code. Přihlaste se nebo zaregistrujte ZDARMA.


Jen registrovaní uživatelé mohou vidět odkazy v code. Přihlaste se nebo zaregistrujte ZDARMA.


15 led 2012, 23:03
Profil
Zobrazit příspěvky za předchozí:  Seřadit podle  
Odeslat nové téma Odpovědět na téma  [ Příspěvků: 18 ]  Přejít na stránku 1, 2  Další

Všechny časy jsou v UTC + 1 hodina


Nemůžete zakládat nová témata v tomto fóru
Nemůžete odpovídat v tomto fóru
Nemůžete upravovat své příspěvky v tomto fóru
Nemůžete mazat své příspěvky v tomto fóru
Nemůžete přikládat soubory v tomto fóru









StahovaniZaSMS Pizza Modena MP3 free download