fastshare
Letka Moskytů / Mosquito Squadron (1969)
Vypnout statistiky
KATEGORIEPOSLEDNÍ PŘÍSPĚVKYPOSLEDNÍ OZNÁMENÍSTATISTIKY UŽIVATELE
Nick: Anonymous
Příspěvků: 2206
Hodnost: Warman
Varování: 0
---
Právě je 21 dub 2024, 10:27





Všechny časy jsou v UTC + 1 hodina


Pravidla fóra







Odeslat nové téma Odpovědět na téma  [ Příspěvek: 1 ] 
 Letka Moskytů / Mosquito Squadron (1969) 
Autor Zpráva
Master Sergant
Master Sergant

Registrován: 27 srp 2008, 16:42
Příspěvky: 132
Příspěvek Letka Moskytů / Mosquito Squadron (1969)

Letka Moskytů / Mosquito Squadron (1969)

Release
Mosquito.Squadron_Letka.Moskytů.1969.fra.eng.cze.1080p.bdrip.x264.aac-rht+SKsub.mkv

Audio - ENG-aac.2ch || FRA-aac.2ch || CZE-ac3.2ch
Titulky - ENG-pgs || FRA-pgs || SK-srt (zdroj - titlecom)


=> - provedena oprava + synchro CZE stopy


Letka Moskytů / Mosquito Squadron (1969)


csfd / imdb
Jen registrovaní uživatelé mohou vidět odkazy v code. Přihlaste se nebo zaregistrujte ZDARMA.


Mediainfo

Formát : Matroska
Format version : Version 4
Velikost souboru : 2,05 GiB
Duration : 1 h 30 min
Celkový BitRate : 3 237 kb/s
Frame rate : 23,976 FPS
Použitý software : mkvmerge v75.0.0 ('Goliath') 64-bit
Enkódoval : libebml v1.4.4 + libmatroska v1.7.1

Video
ID : 1
Formát : AVC
Formát/Info : Advanced Video Codec
Format profile : [email protected]
Format settings : CABAC / 4 Ref Frames
Format settings, CABAC : Ano
Format settings, Reference frames : 4 frames
Codec ID : V_MPEG4/ISO/AVC
Duration : 1 h 30 min
Bit rate : 2 500 kb/s
Šířka : 1 800pixely
Výška : 1 080pixely
Poměr stran : 5:3
Frame rate mode : Constant
Frame rate : 23,976 (23976/1000) FPS
Color space : YUV
Chroma subsampling : 4:2:0
Bit depth : 8 bits
Scan type : Progressive
Bits/(Pixel*Frame) : 0.054
Stream size : 1,58 GiB (77%)
Enkódoval : x264 core 152 r2851M ba24899
Nastavení enkoderu : cabac=1 / ref=4 / deblock=1:-1:-1 / analyse=0x3:0x113 / me=umh / subme=9 / psy=1 / psy_rd=1.00:0.15 / mixed_ref=1 / me_range=24 / chroma_me=1 / trellis=2 / 8x8dct=1 / cqm=0 / deadzone=21,11 / fast_pskip=1 / chroma_qp_offset=-3 / threads=16 / lookahead_threads=4 / sliced_threads=0 / nr=0 / decimate=1 / interlaced=0 / bluray_compat=0 / constrained_intra=0 / bframes=3 / b_pyramid=2 / b_adapt=2 / b_bias=0 / direct=3 / weightb=1 / open_gop=0 / weightp=2 / keyint=250 / keyint_min=25 / scenecut=40 / intra_refresh=0 / rc_lookahead=50 / rc=2pass / mbtree=1 / bitrate=2500 / ratetol=1.0 / qcomp=0.60 / qpmin=0 / qpmax=69 / qpstep=4 / cplxblur=20.0 / qblur=0.5 / vbv_maxrate=31250 / vbv_bufsize=31250 / nal_hrd=none / filler=0 / ip_ratio=1.40 / aq=3:1.00
Default : Ano
Forced : Ne

Audio #1
ID : 2
Formát : AC-3
Formát/Info : Audio Coding 3
Commercial name : Dolby Digital
Codec ID : A_AC3
Duration : 1 h 30 min
Bit rate mode : Constant
Bit rate : 192 kb/s
Kanál(y) : 2 kanály
Channel layout : L R
Sampling rate : 48,0 kHz
Frame rate : 31,250 FPS (1536 SPF)
Compression mode : Lossy
Stream size : 125 MiB (6%)
Titul : cze-ac3.2ch
Jazyk : Czech
Service kind : Complete Main
Default : Ano
Forced : Ne

Audio #2
ID : 3
Formát : AAC LC
Formát/Info : Advanced Audio Codec Low Complexity
Codec ID : A_AAC-2
Duration : 1 h 30 min
Bit rate : 256 kb/s
Kanál(y) : 2 kanály
Channel layout : L R
Sampling rate : 44,1 kHz
Frame rate : 43,066 FPS (1024 SPF)
Compression mode : Lossy
Stream size : 166 MiB (8%)
Titul : eng-aac.2ch
Jazyk : English
Default : Ne
Forced : Ne

Audio #3
ID : 4
Formát : AAC LC
Formát/Info : Advanced Audio Codec Low Complexity
Codec ID : A_AAC-2
Duration : 1 h 30 min
Bit rate : 256 kb/s
Kanál(y) : 2 kanály
Channel layout : L R
Sampling rate : 44,1 kHz
Frame rate : 43,066 FPS (1024 SPF)
Compression mode : Lossy
Stream size : 166 MiB (8%)
Titul : fra-aac.2ch
Jazyk : French
Default : Ne
Forced : Ne

Text #1
ID : 5
Formát : UTF-8
Codec ID : S_TEXT/UTF8
Codec ID/Info : UTF-8 Plain Text
Duration : 1 h 27 min
Bit rate : 42 b/s
Frame rate : 0,152 FPS
Count of elements : 796
Stream size : 26,9 KiB (0%)
Titul : sk-srt (zdroj-titlecom)
Jazyk : Slovak
Default : Ne
Forced : Ne

Text #2
ID : 6
Formát : PGS
Muxing mode : zlib
Codec ID : S_HDMV/PGS
Codec ID/Info : Picture based subtitle format used on BDs/HD-DVDs
Duration : 1 h 29 min
Bit rate : 29,4 kb/s
Frame rate : 0,327 FPS
Count of elements : 1750
Stream size : 18,7 MiB (1%)
Titul : eng-pgs
Jazyk : English
Default : Ne
Forced : Ne

Text #3
ID : 7
Formát : PGS
Muxing mode : zlib
Codec ID : S_HDMV/PGS
Codec ID/Info : Picture based subtitle format used on BDs/HD-DVDs
Duration : 1 h 29 min
Bit rate : 26,4 kb/s
Frame rate : 0,273 FPS
Count of elements : 1460
Stream size : 16,9 MiB (1%)
Titul : fra-pgs
Jazyk : French
Default : Ne
Forced : Ne



Další fullHD / HD
Jen registrovaní uživatelé mohou vidět odkazy v code. Přihlaste se nebo zaregistrujte ZDARMA.



=> prosim, v pripade reuploadu, zachovejte zde uvedeny odkaz na stazeni


Webshare
Jen registrovaní uživatelé mohou vidět odkazy v code. Přihlaste se nebo zaregistrujte ZDARMA.


24 úno 2024, 23:54
Profil
Zobrazit příspěvky za předchozí:  Seřadit podle  
Odeslat nové téma Odpovědět na téma  [ Příspěvek: 1 ] 

Všechny časy jsou v UTC + 1 hodina


Nemůžete zakládat nová témata v tomto fóru
Nemůžete odpovídat v tomto fóru
Nemůžete upravovat své příspěvky v tomto fóru
Nemůžete mazat své příspěvky v tomto fóru
Nemůžete přikládat soubory v tomto fóru








Uložto alternativa Pizza Modena MovieDB.cz filmová databáze