fastshare
Rallye smrti 2 / Death Race 2 (2010)
Vypnout statistiky
KATEGORIEPOSLEDNÍ PŘÍSPĚVKYPOSLEDNÍ OZNÁMENÍSTATISTIKY UŽIVATELE
Nick: Anonymous
Příspěvků: 3854
Hodnost: Warman
Varování: 0
---
Právě je 23 dub 2014, 19:38




Všechny časy jsou v UTC + 1 hodina


Pravidla fóra







Odeslat nové téma Odpovědět na téma  [ Příspěvků: 13 ] 
 Rallye smrti 2 / Death Race 2 (2010) 
Autor Zpráva
Colonel 5 th class
Colonel 5 th class
Uživatelský avatar

Registrován: 27 dub 2008, 13:14
Příspěvky: 679
Příspěvek Rallye smrti 2 / Death Race 2 (2010)

Release: Rallye smrti 2 / 2010 / 1080p / DTS EN / DD 5.1 CZ
Názov: Rallye smrti 2 / Death Race 2 (2010)

Rallye smrti 2 / Death Race 2 (2010)

Rallye smrti 2 / Death Race 2 (2010)


Rallye smrti 2 / Death Race 2 (2010)
    Dabing: DD5.1 Český, DTS Anglický
    Titulky: České, Slovenské, Anglické
    *********
    Žáner: Akční / Sci-Fi / Thriller
    Krajina: Južná Afrika
    Rok: 2010
    *********
    Réžia: Roel Reiné
    Hrajú: Danny Trejo, Sean Bean, Lauren Cohan, Tanit Phoenix, Luke Goss, Ving Rhames, Robin Shou, Warrick Grier, Patrick Lyster

Rallye smrti 2 / Death Race 2 (2010)


Rallye smrti 2 / Death Race 2 (2010)


Rallye smrti 2 / Death Race 2 (2010)





Rallye smrti 2 / Death Race 2 (2010)


Naposledy upravil XtrM dne 12 úno 2011, 04:15, celkově upraveno 1

12 úno 2011, 01:55
Profil
Sergeant
Sergeant

Registrován: 24 led 2010, 09:31
Příspěvky: 107
Příspěvek Re: Rallye smrti 2 / Death Race 2 (2010)

Re: Rallye smrti 2 / Death Race 2 (2010)


Rallye smrti 2 / 2010 / 1080p / DTS EN / DD 5.1 CZ

Re: Rallye smrti 2 / Death Race 2 (2010)


Re: Rallye smrti 2 / Death Race 2 (2010)

Re: Rallye smrti 2 / Death Race 2 (2010)



Re: Rallye smrti 2 / Death Race 2 (2010)




Re: Rallye smrti 2 / Death Race 2 (2010)

Kombinovatelné podle velikosti v názvu linku !!!



Re: Rallye smrti 2 / Death Race 2 (2010)



Re: Rallye smrti 2 / Death Race 2 (2010)




Re: Rallye smrti 2 / Death Race 2 (2010)



Re: Rallye smrti 2 / Death Race 2 (2010)



Re: Rallye smrti 2 / Death Race 2 (2010)








Re: Rallye smrti 2 / Death Race 2 (2010)

Re: Rallye smrti 2 / Death Race 2 (2010)

Re: Rallye smrti 2 / Death Race 2 (2010)

Citace:
Odkazy jsou vzájemně zaměnitelné, jestliže se jedná o stejnou velikost souborů!
Pokud se vám oběví chyba při rozbalování, zkuste si stáhnout vadnou část znovu!
Všechny mé uploady jsou baleny v WinRAR, rozbalovat pouze v programu WinRAR!
Všechny moje uploady obsahují 5% záznam pro opravu dat! ! !
Co bude časem smazané, obnovovat nebudu!!!!!
Za BonGo-Uploaders pro vás nahrál WarBadd!e®

_________________
/P/ Sharerapid kredit - Levně od 100GB po 2TB na BU nebo PAYPAL
Pište na email aludaby@centrum.cz
Chceš začít vydělávat a mýt pasivní příjem? Tak mi napiš a ja ti pomůžu


Naposledy upravil Pastrana dne 12 úno 2011, 12:04, celkově upraveno 1

12 úno 2011, 02:10
Profil
Sergeant
Sergeant

Registrován: 18 lis 2010, 16:39
Příspěvky: 111
Příspěvek Re: Rallye smrti 2 / Death Race 2 (2010)

Názov Death Race 2 / 2010 / 1080p / DTS EN / DD 5.1 CZ

Original Releas:  Death.Race.2.2010.1080p.BluRay.x264-AVCHD - obsahuje aj cz, sk titulky


Re: Rallye smrti 2 / Death Race 2 (2010)

Re: Rallye smrti 2 / Death Race 2 (2010)


Re: Rallye smrti 2 / Death Race 2 (2010)


Re: Rallye smrti 2 / Death Race 2 (2010)


Re: Rallye smrti 2 / Death Race 2 (2010)


Re: Rallye smrti 2 / Death Race 2 (2010)



Re: Rallye smrti 2 / Death Race 2 (2010)
No!!!


12 úno 2011, 02:44
Profil
Colonel 4 th class
Colonel 4 th class
Uživatelský avatar

Registrován: 29 srp 2010, 15:09
Příspěvky: 548
Příspěvek Re: Rallye smrti 2 / Death Race 2 (2010)

Re: Rallye smrti 2 / Death Race 2 (2010)
Rallye smrti 2 / Death Race 2 (2010)

Re: Rallye smrti 2 / Death Race 2 (2010)
Re: Rallye smrti 2 / Death Race 2 (2010)

Re: Rallye smrti 2 / Death Race 2 (2010)



Re: Rallye smrti 2 / Death Race 2 (2010)

Re: Rallye smrti 2 / Death Race 2 (2010)

Re: Rallye smrti 2 / Death Race 2 (2010)


Naposledy upravil MiPe_ dne 23 úno 2011, 14:51, celkově upraveno 2

12 úno 2011, 02:47
Profil
Army General
Army General

Registrován: 21 črc 2009, 11:51
Příspěvky: 996
Příspěvek Re: Rallye smrti 2 / Death Race 2 (2010)

Death Race 2 / 2010 / 1080p / DTS EN / DD 5.1 CZ
Re: Rallye smrti 2 / Death Race 2 (2010)

Re: Rallye smrti 2 / Death Race 2 (2010)



Re: Rallye smrti 2 / Death Race 2 (2010)
GENERAL 1080p CZ
Citace:

Format : Matroska
File size : 8.21 GiB
Duration : 1h 40mn
Overall bit rate : 11.7 Mbps


Writing library : libebml v1.0.0 + libmatroska v1.0.0

Video
ID : 1
Format : AVC
Format/Info : Advanced Video Codec
Format profile : High@L4.1
Format settings, CABAC : Yes
Format settings, ReFrames : 4 frames
Codec ID : V_MPEG4/ISO/AVC
Duration : 1h 40mn
Bit rate : 9 823 Kbps
Width : 1 920 pixels
Height : 1 080 pixels
Display aspect ratio : 16:9
Frame rate : 23.976 fps
Color space : YUV
Chroma subsampling : 4:2:0
Bit depth : 8 bits
Scan type : Progressive
Bits/(Pixel*Frame) : 0.198

Writing library : x264 core 112 r1834 a51816a


Audio #1
ID : 2
Format : AC-3
Format/Info : Audio Coding 3
Mode extension : CM (complete main)
Codec ID : A_AC3
Duration : 1h 40mn
Bit rate mode : Constant
Bit rate : 384 Kbps
Channel(s) : 6 channels
Channel positions : Front: L C R, Side: L R, LFE
Sampling rate : 48.0 KHz
Bit depth : 16 bits
Compression mode : Lossy
Stream size : 276 MiB (3%)
Title : DD 5.1 CZ@384Kbps
Language : Czech

Audio #2
ID : 3
Format : DTS
Format/Info : Digital Theater Systems
Codec ID : A_DTS
Duration : 1h 40mn
Bit rate mode : Constant
Bit rate : 1 510 Kbps
Channel(s) : 6 channels
Channel positions : Front: L C R, Side: L R, LFE
Sampling rate : 48.0 KHz
Bit depth : 24 bits
Compression mode : Lossy
Stream size : 1.06 GiB (13%)
Title : DTS EN@1,5Mb/s
Language : English

Subtitles : Czech, Slovak, English



Re: Rallye smrti 2 / Death Race 2 (2010)
Re: Rallye smrti 2 / Death Race 2 (2010)


Re: Rallye smrti 2 / Death Race 2 (2010)
Re: Rallye smrti 2 / Death Race 2 (2010)


Naposledy upravil lapepa dne 02 srp 2011, 17:14, celkově upraveno 1

12 úno 2011, 09:05
Profil
Warrant
Warrant
Uživatelský avatar

Registrován: 20 kvě 2008, 18:14
Příspěvky: 185
Příspěvek Re: Rallye smrti 2 / Death Race 2 (2010)

Re: Rallye smrti 2 / Death Race 2 (2010)


Rallye smrti 2 / 2010 / 1080p / DTS EN / DD 5.1 CZ

Re: Rallye smrti 2 / Death Race 2 (2010)


Re: Rallye smrti 2 / Death Race 2 (2010)

Re: Rallye smrti 2 / Death Race 2 (2010)



Re: Rallye smrti 2 / Death Race 2 (2010)




Re: Rallye smrti 2 / Death Race 2 (2010)

Kombinovatelné podle velikosti v názvu linku !!!



Re: Rallye smrti 2 / Death Race 2 (2010)



Re: Rallye smrti 2 / Death Race 2 (2010)




Re: Rallye smrti 2 / Death Race 2 (2010)



Re: Rallye smrti 2 / Death Race 2 (2010)



Re: Rallye smrti 2 / Death Race 2 (2010)








Re: Rallye smrti 2 / Death Race 2 (2010)

Re: Rallye smrti 2 / Death Race 2 (2010)

Re: Rallye smrti 2 / Death Race 2 (2010)

Citace:
Odkazy jsou vzájemně zaměnitelné, jestliže se jedná o stejnou velikost souborů!
Pokud se vám oběví chyba při rozbalování, zkuste si stáhnout vadnou část znovu!
Všechny mé uploady jsou baleny v WinRAR, rozbalovat pouze v programu WinRAR!
Všechny moje uploady obsahují 5% záznam pro opravu dat! ! !
Co bude časem smazané, obnovovat nebudu!!!!!
Za BonGo-Uploaders pro vás nahrál WarBadd!e®


12 úno 2011, 12:45
Profil
Warrant
Warrant

Registrován: 17 dub 2008, 21:23
Příspěvky: 190
Příspěvek Re: Rallye smrti 2 / Death Race 2 (2010)

Rallye smrti 2 / Death Race 2 (2010) / 1080p / DTS EN / AC3 CZ
Rallye.smrti.2.2010.1080p.BluRay.x264.DTS.EN.CZ-DroB

Re: Rallye smrti 2 / Death Race 2 (2010)





Jedná se o prequel původní úspěšné jedničky. Podíváme so opět na ostrov TERMINAL a do věznice na něm umístěné. Projdeme od doby, kdy byl TERMINAL pouze obyčejnou věznicí ve vlastnictví soukromníků. Po krvelačné rvačce mezi vězni, natočené na zcela náhodně přítomné televizní kamery, což vyvolá prudký ohlas u televizních diváků, je věznice TERMINAL ISLAND přestavěna na místo hostující DEATH FIGHT, zápasy muže proti muži na život, smrt a porážku. Avšak poté, co sledovanost klesne a do věznice je poslán nový vězeň (Luke Goss), známý lupič a skvělý řidič, je DEATH FIGHT zrušen a rodí se DEATH RACE. Závod ozbrojených aut. Jak jinak než na život a smrt! Uvidíte krev, smrt a zrození. Zrození nikoho jiného, než FRANKENSTEINa !


Citace:
Rallye.smrti.2.2010.1080p.BluRay.x264.DTS.EN.CZ-DroB
Rozlišení:::::......:::::1 920 x 1 080 / 23,976 FPS
Celkový BitRate:::::......:::::15,9 Mbps
Video BitRate:::::......:::::14,0 Mbps
Audio #1:::::......:::::Český - 384 Kbps, 48,0 KHz, 6 kanály AC 3
Audio #2:::::......:::::Anglický - 1510 Kbps, 48,0 KHz, 6 kanály DTS
Titulky:::::......:::::České, Anglické, Slovenské
Délka:::::......:::::1h 40mn
Velikost:::::......:::::11,1 GiB






Sample


hellshare.com


multishare.cz



share-rapid



Citace:
Heslo: drobek
Linky se dají kombinovat
Přidán záznam na opravu dat


Naposledy upravil drobeček02 dne 22 úno 2011, 19:44, celkově upraveno 1

12 úno 2011, 19:48
Profil
Major
Major
Uživatelský avatar

Registrován: 13 bře 2008, 20:34
Příspěvky: 346
Příspěvek Re: Rallye smrti 2 / Death Race 2 (2010)

Death.Race.2.2010.720p.AC3.x264.CZ

Akční / Sci-Fi / Thriller
Jižní Afrika, 2010, 96 min


Jedná se o prequel původní úspěšné jedničky. Podíváme so opět na ostrov TERMINAL a do věznice na něm umístěné. Projdeme od doby, kdy byl TERMINAL pouze obyčejnou věznicí ve vlastnictví soukromníků. Po krvelačné rvačce mezi vězni, natočené na zcela náhodně přítomné televizní kamery, což vyvolá prudký ohlas u televizních diváků, je věznice TERMINAL ISLAND přestavěna na místo hostující DEATH FIGHT, zápasy muže proti muži na život, smrt a porážku. Avšak poté, co sledovanost klesne a do věznice je poslán nový vězeň (Luke Goss), známý lupič a skvělý řidič, je DEATH FIGHT zrušen a rodí se DEATH RACE. Závod ozbrojených aut. Jak jinak než na život a smrt! Uvidíte krev, smrt a zrození. Zrození nikoho jiného, než FRANKENSTEINa !


bez hesla


15 úno 2011, 19:54
Profil
Private 1 st class
Private 1 st class

Registrován: 14 kvě 2009, 19:19
Příspěvky: 19
Příspěvek Re: Rallye smrti 2 / Death Race 2 (2010)

Re: Rallye smrti 2 / Death Race 2 (2010)
Name: Rallye smrti 2
Release: Rallye smrti (2) (2010) Blu-ray 1080p CZ SeBo

Re: Rallye smrti 2 / Death Race 2 (2010)
Re: Rallye smrti 2 / Death Race 2 (2010)

Re: Rallye smrti 2 / Death Race 2 (2010)


Re: Rallye smrti 2 / Death Race 2 (2010)


Re: Rallye smrti 2 / Death Race 2 (2010)
Re: Rallye smrti 2 / Death Race 2 (2010) Rallye smrti 2
Re: Rallye smrti 2 / Death Race 2 (2010) Death Race 2

Media INFO :
Citace:
Jazyk/Languages: CZ 5.1 / ENG DTS-HD 5.1 / ...MultiAudio
Titulky/Subtitles: CZ / ENG / ...MultiSub
Menu & bonusy/Menu & bonuses: Yes / Yes
Veľkosť disku/Size: 37.75GB
Typ disku/Type: Blu-Ray Disc
Vydanie/Year: 2010
Žáner/Genre: Akční / Sci-Fi / Thriller
Hodnotenie/Rate: 55%


BD INFO :



Re: Rallye smrti 2 / Death Race 2 (2010)
Re: Rallye smrti 2 / Death Race 2 (2010)
{ 19x1900mb+505mb+readme }



Re: Rallye smrti 2 / Death Race 2 (2010)
{ 19x1900mb+505mb+readme }


Re: Rallye smrti 2 / Death Race 2 (2010)
Personal Notes :
Citace:
Všetky moje uploady sú bez hesla.
Ak máte problém pošlite mi SS/PM.
Uploady sú rozdelené WinRarom.
Nerobím reupload DEAD linkov.
Linky sú vždy kombinovateľné.
Readme nájdete vždy v CODE.
Linky sú voľne šíriteľné.
Neželám si Reupload Full Blu-Ray discov.
Za PowerUploaders pre Vás nahral PU_ßlu_Ray.


22 úno 2011, 16:53
Profil
Private 1 st class
Private 1 st class

Registrován: 14 kvě 2009, 19:19
Příspěvky: 19
Příspěvek Re: Rallye smrti 2 / Death Race 2 (2010)

Re: Rallye smrti 2 / Death Race 2 (2010)
Name: Rallye smrti 2
Release: Rallye smrti (2) (2010) Blu-ray 1080p CZ SeBo

Re: Rallye smrti 2 / Death Race 2 (2010)
Re: Rallye smrti 2 / Death Race 2 (2010)

Re: Rallye smrti 2 / Death Race 2 (2010)


Re: Rallye smrti 2 / Death Race 2 (2010)


Re: Rallye smrti 2 / Death Race 2 (2010)
Re: Rallye smrti 2 / Death Race 2 (2010) Rallye smrti 2
Re: Rallye smrti 2 / Death Race 2 (2010) Death Race 2

Media INFO :
Citace:
Jazyk/Languages: CZ 5.1 / ENG DTS-HD 5.1 / ...MultiAudio
Titulky/Subtitles: CZ / ENG / ...MultiSub
Menu & bonusy/Menu & bonuses: Yes / Yes
Veľkosť disku/Size: 37.75GB
Typ disku/Type: Blu-Ray Disc
Vydanie/Year: 2010
Žáner/Genre: Akční / Sci-Fi / Thriller
Hodnotenie/Rate: 55%


BD INFO :



Re: Rallye smrti 2 / Death Race 2 (2010)
Re: Rallye smrti 2 / Death Race 2 (2010)
{ 19x1900mb+505mb+readme }



Re: Rallye smrti 2 / Death Race 2 (2010)
{ 19x1900mb+505mb+readme }


Re: Rallye smrti 2 / Death Race 2 (2010)
Personal Notes :
Citace:
Všetky moje uploady sú bez hesla.
Ak máte problém pošlite mi SS/PM.
Uploady sú rozdelené WinRarom.
Nerobím reupload DEAD linkov.
Linky sú vždy kombinovateľné.
Readme nájdete vždy v CODE.
Linky sú voľne šíriteľné.
Neželám si Reupload Full Blu-Ray discov.
Za PowerUploaders pre Vás nahral PU_ßlu_Ray.


22 úno 2011, 16:54
Profil
Colonel 2 nd class
Colonel 2 nd class

Registrován: 28 bře 2009, 12:32
Příspěvky: 419
Příspěvek Re: Rallye smrti 2 / Death Race 2 (2010)

Re: Rallye smrti 2 / Death Race 2 (2010)

Re: Rallye smrti 2 / Death Race 2 (2010)



Re: Rallye smrti 2 / Death Race 2 (2010)
Citace:
Disc Title: Rallye smrti 2 Blu_ Ray
Disc Size: 40 535 041 281 bytes
Protection: AACS
BD-Java: Yes
BDInfo: 0.5.4


VC-1 Video 0 kbps 1080p / 23,976 fps / 16:9 / Advanced Profile 3

AUDIO:

Codec Language Bitrate Description
----- -------- ------- -----------
DTS-HD Master Audio English 0 kbps 5.1 / 48 kHz / 24-bit (DTS Core: 5.1 / 48 kHz / 1509 kbps / 24-bit)
DTS Audio Czech 768 kbps 5.1 / 48 kHz / 768 kbps / 16-bit
DTS Audio Hungarian 768 kbps 5.1 / 48 kHz / 768 kbps / 16-bit
DTS Audio Polish 768 kbps 5.1 / 48 kHz / 768 kbps / 16-bit
DTS Audio Portuguese 768 kbps 5.1 / 48 kHz / 768 kbps / 16-bit
DTS Audio Russian 768 kbps 5.1 / 48 kHz / 768 kbps / 16-bit
DTS Audio Spanish 768 kbps 5.1 / 48 kHz / 768 kbps / 16-bit
DTS Audio Thai 768 kbps 5.1 / 48 kHz / 768 kbps / 16-bit
Dolby Digital Audio English 192 kbps 2.0 / 48 kHz / 192 kbps / DN -4dB



SUBTITLES:

Codec Language Bitrate Description
----- -------- ------- -----------
Presentation Graphics English 0,000 kbps
Presentation Graphics English 0,000 kbps
Presentation Graphics Croatian 0,000 kbps
Presentation Graphics Czech 0,000 kbps
Presentation Graphics Czech 0,000 kbps
Presentation Graphics Hungarian 0,000 kbps
Presentation Graphics Hungarian 0,000 kbps
Presentation Graphics Polish 0,000 kbps
Presentation Graphics Polish 0,000 kbps
Presentation Graphics Portuguese 0,000 kbps
Presentation Graphics Portuguese 0,000 kbps
Presentation Graphics Portuguese 0,000 kbps
Presentation Graphics Romanian 0,000 kbps
Presentation Graphics Russian 0,000 kbps
Presentation Graphics Russian 0,000 kbps
Presentation Graphics Slovenian 0,000 kbps
Presentation Graphics Spanish 0,000 kbps
Presentation Graphics Spanish 0,000 kbps
Presentation Graphics Spanish 0,000 kbps
Presentation Graphics Thai 0,000 kbps
Presentation Graphics Thai 0,000 kbps
Presentation Graphics Turkish 0,000 kbps


Re: Rallye smrti 2 / Death Race 2 (2010)



Re: Rallye smrti 2 / Death Race 2 (2010)



Re: Rallye smrti 2 / Death Race 2 (2010)
Přidán záznam na opravu dat 5%


23 úno 2011, 04:59
Profil
Master Sergant
Master Sergant

Registrován: 20 úno 2009, 20:40
Příspěvky: 153
Příspěvek Re: Rallye smrti 2 / Death Race 2 (2010)

Rallye smrti 2 / Death race 2 (2010) [1080p] / EN,CZ
screen:
Re: Rallye smrti 2 / Death Race 2 (2010)
:csfd:

info: 500 MB/1part …total : 8.21 GB
Citace:
"General
Complete name: X:\Death.Race.2.2010.1080p.BluRay.x264-AVCHD\avchd-death-race-2-1080p-bluray.mkv
Format: Matroska
File size: 8.21 GiB
Duration: 1h 40mn
Overall bit rate: 11.7 Mbps
Encoded date: UTC 2011-02-12 17:57:12
Writing application: mkvmerge v4.0.0 ('The Stars were mine' built on Jun 6 2010 16:18:42
Writing library: libebml v1.0.0 + libmatroska v1.0.0

Video
ID: 1
Format: AVC
Format/Info: Advanced Video Codec
Format profile: High@L4.1
Format settings, CABAC: Yes
Format settings, ReFrames: 4 frames
Codec ID: V_MPEG4/ISO/AVC
Duration: 1h 40mn
Bit rate: 9 823 Kbps
Width: 1 920 pixels
Height: 1 080 pixels
Display aspect ratio: 16:9
Frame rate: 23.976 fps
Color space: YUV
Chroma subsampling: 4:2:0
Bit depth: 8 bits
Scan type: Progressive
Bits/(Pixel*Frame): 0.198
Stream size: 6.72 GiB (82%)
Title: Death.Race.2.2010.1080p.BluRay.x264-AVCHD
Writing library: x264 core 112 r1834 a51816a
Encoding settings: cabac=1 / ref=4 / deblock=1:0:0 / analyse=0x3:0x133 / me=umh / subme=7 / psy=1 / psy_rd=1.00:0.00 / mixed_ref=1 / me_range=16 / chroma_me=1 / trellis=1 / 8x8dct=1 / cqm=0 / deadzone=21,11 / fast_pskip=0 / chroma_qp_offset=-2 / threads=12 / sliced_threads=0 / nr=0 / decimate=1 / interlaced=0 / constrained_intra=0 / bframes=3 / b_pyramid=2 / b_adapt=1 / b_bias=0 / direct=1 / weightb=1 / open_gop=0 / weightp=2 / keyint=250 / keyint_min=23 / scenecut=40 / intra_refresh=0 / rc_lookahead=40 / rc=2pass / mbtree=1 / bitrate=9823 / ratetol=1.0 / qcomp=0.60 / qpmin=0 / qpmax=51 / qpstep=4 / cplxblur=20.0 / qblur=0.5 / ip_ratio=1.40 / aq=1:1.00
Language: English

Audio #1
ID: 2
Format: DTS
Format/Info: Digital Theater Systems
Codec ID: A_DTS
Duration: 1h 40mn
Bit rate mode: Constant
Bit rate: 1 510 Kbps
Channel(s): 6 channels
Channel positions: Front: L C R, Side: L R, LFE
Sampling rate: 48.0 KHz
Bit depth: 24 bits
Stream size: 1.06 GiB (13%)
Title: DTS EN@1,5Mb/s
Language: English

Audio #2
ID: 6
Format: AC-3
Format/Info: Audio Coding 3
Mode extension: CM (complete main)
Codec ID: A_AC3
Duration: 1h 40mn
Bit rate mode: Constant
Bit rate: 384 Kbps
Channel(s): 6 channels
Channel positions: Front: L C R, Side: L R, LFE
Sampling rate: 48.0 KHz
Bit depth: 16 bits
Stream size: 276 MiB (3%)
Title: Cze ac-3 5,1
Language: Czech

Text #1
ID: 3
Format: UTF-8
Codec ID: S_TEXT/UTF8
Codec ID/Info: UTF-8 Plain Text
Title: cz titulky
Language: Czech

Text #2
ID: 4
Format: UTF-8
Codec ID: S_TEXT/UTF8
Codec ID/Info: UTF-8 Plain Text
Title: sk titulky
Language: Slovak

Text #3
ID: 5
Format: UTF-8
Codec ID: S_TEXT/UTF8
Codec ID/Info: UTF-8 Plain Text
Title: en subtitles
Language: English"

Re: Rallye smrti 2 / Death Race 2 (2010)


28 úno 2011, 22:31
Profil
Colonel
Colonel

Registrován: 24 čer 2011, 04:19
Příspěvky: 362
Příspěvek Re: Rallye smrti 2 / Death Race 2 (2010)

Rallye smrti 2 / CZ, EN
Death.Race.2.2010.1080p.BluRay.x264-AVCHD.CZ-GOGO

Re: Rallye smrti 2 / Death Race 2 (2010)



Jedná se o prequel původní úspěšné jedničky. Podíváme so opět na ostrov TERMINAL a do věznice na něm umístěné. Projdeme od doby, kdy byl TERMINAL pouze obyčejnou věznicí ve vlastnictví soukromníků. Po krvelačné rvačce mezi vězni, natočené na zcela náhodně přítomné televizní kamery, což vyvolá prudký ohlas u televizních diváků, je věznice TERMINAL ISLAND přestavěna na místo hostující DEATH FIGHT, zápasy muže proti muži na život, smrt a porážku. Avšak poté, co sledovanost klesne a do věznice je poslán nový vězeň (Luke Goss), známý lupič a skvělý řidič, je DEATH FIGHT zrušen a rodí se DEATH RACE. Závod ozbrojených aut. Jak jinak než na život a smrt! Uvidíte krev, smrt a zrození. Zrození nikoho jiného, než FRANKENSTEINa !

Citace:
Format : Matroska at 11,7 Mbps
Length : 8,21 GiB for 1h 40mn 19s 13ms

Video #0 : AVC at 9 823 Kbps
Aspect : 1920 x 1080 (1.778) at 23.976 fps

Audio #0 : AC-3 at 384 Kbps
Infos : 6 kanály, 48,0 KHz
Language : cs

Audio #1 : DTS at 1 510 Kbps
Infos : 6 kanály, 48,0 KHz
Language : en

Subbtitles: CZ, SK, EN



Fileserve:


Filesonic:


Uploadstation:





11 pro 2011, 21:14
Profil
Zobrazit příspěvky za předchozí:  Seřadit podle  
Odeslat nové téma Odpovědět na téma  [ Příspěvků: 13 ] 

Všechny časy jsou v UTC + 1 hodina


Nemůžete zakládat nová témata v tomto fóru
Nemůžete odpovídat v tomto fóru
Nemůžete upravovat své příspěvky v tomto fóru
Nemůžete mazat své příspěvky v tomto fóru
Nemůžete přikládat soubory v tomto fóru










StahovaniZaSMS Pizza Modena