fastshare
Potomci lidí / Children of Men (2006)
Vypnout statistiky
KATEGORIEPOSLEDNÍ PŘÍSPĚVKYPOSLEDNÍ OZNÁMENÍSTATISTIKY UŽIVATELE
Nick: Anonymous
Příspěvků: 3819
Hodnost: Warman
Varování: 0
---
Právě je 23 lis 2014, 14:00




Všechny časy jsou v UTC + 1 hodina


Pravidla fóra







Odeslat nové téma Odpovědět na téma  [ Příspěvků: 4 ] 
 Potomci lidí / Children of Men (2006) 
Autor Zpráva
Warman
Warman
Uživatelský avatar

Registrován: 25 lis 2008, 11:02
Příspěvky: 3673
Příspěvek Re: Potomci lidí / Children of Men (2006)

Potomci lidí
Children of Men (2006)

Re: Potomci lidí / Children of Men (2006)
AKTUÁLNĚ - 80%
Re: Potomci lidí / Children of Men (2006)

Citace:
Obsah:
Sci-Fi / Thriller / Dobrodružný / Drama

Velká Británie / USA / Japonsko, 2006, 109 min
Režie: Alfonso Cuarón
Hudba: John Tavener
Hrají: Clive Owen, Julianne Moore, Michael Caine, Danny Huston, Charlie Hunnam, Chiwetel Ejiofor, Pam Ferris, Peter Mullan, Claire-Hope Ashitey, Oana Pellea, Jacek Koman, Ilario Bisi-Pedro, Ed Westwick


Planeta Země, rok 2027. Už devatenáct let se nenarodilo jediné dítě. Svět podléhá beznaději a anarchii a po čím dál zoufalejších pokusech o nalezení a odstranění příčiny neplodnosti lidstva už jen čeká na zázrak. Do nedaleké budoucnosti nás ve své temné a šokující vizi uvádí režisér Alfonso Cuarón (Mexická jízda, Harry Potter a vězeň z Azkabanu), který se inspiroval slavnou stejnojmennou sci-fi novelou královny detektivek P. D. James. Díky totalitnímu zřízení dokáže jediná Velká Británie odolávat všeobjímajícímu chaosu. Platí za to sice strašnou cenu - občanská práva jsou velmi okleštěna a občasné pokusy o odpor brutálně potlačovány, ale Theovi (Clive Owen), londýnskému byrokratovi, který už jen pasivně čeká na svůj konec, je to úplně jedno. Ovšem jen do chvíle, než se s pytlem na hlavě ocitne v kufru dodávky a posléze stane tváří v tvář své bývalé lásce Julian (Julianne Moore), která stojí v čele jedné z mnoha odbojových skupin a má pro Thea speciální úkol - zajistit pro jednu z jejích spolubojovnic tranzitní víza a dostat ji bezpečně ze země. Během cesty, jejímž cílem je azyl pod záštitou organizace Human Project, Theo zjišťuje, že jeho chráněnka Kee není obyčejná uprchlice. Naopak - je to člověk, kvůli kterému by byla spousta lidí ochotná vraždit. Je totiž v osmém měsíci těhotenství a představuje kýžený zázrak, na který lidstvo už devatenáct let čeká. Na útěku před anarchisty, kteří by ji rádi zlikvidovali kvůli zachování stávajícího bezvýchodného stavu, a reprezentanty režimu, již by ji rádi zneužili ke svým politickým cílům, se Theo a Kee stávají velmi nejistou, nicméně jedinou nadějí naší civilizace. Režiséra Cuaróna nadchla představa, že by se prostřednictvím filmu zasazeného do blízké budoucnosti mohl vyjadřovat k dnešku. "To, jak se chováme dnes, výrazně ovlivní podobu naší planety za dvacet let. Vlastně to není sci - fi, ale současný thriller zasazený do roku 2027," říká Cuarón. Svět za pár let je sice snímán temnými, syrovými barvami, ale podle režiséra jde spíš o nastolení správné atmosféry než o jeho názor na naši budoucnost. "Ten film je o tom, že mít naději se vyplatí i v bezvýchodné situaci," dodává.

Re: Potomci lidí / Children of Men (2006)

Re: Potomci lidí / Children of Men (2006)
Citace:
General
Complete name : Z:\DVD UPLOAD\Potomci lidí (2006) DVDRip CZ.avi
Format : AVI
Format/Info : Audio Video Interleave
File size : 878 MiB
Duration : 1h 44mn
Overall bit rate : 1 172 Kbps

Video
ID : 0
Format : MPEG-4 Visual
Format profile : Advanced Simple@L5
Format settings, BVOP : Yes
Format settings, QPel : No
Format settings, GMC : No warppoints
Format settings, Matrix : Default (H.263)
Muxing mode : Packed bitstream
Codec ID : XVID
Codec ID/Hint : XviD
Duration : 1h 44mn
Bit rate : 968 Kbps
Width : 720 pixels
Height : 480 pixels
Display aspect ratio : 3:2
Frame rate : 29.970 fps
Standard : NTSC
Color space : YUV
Chroma subsampling : 4:2:0
Bit depth : 8 bits
Scan type : Progressive
Bits/(Pixel*Frame) : 0.093
Stream size : 725 MiB (83%)
Writing library : XviD 1.2.0.dev45 (UTC 2006-07-10)

Audio
ID : 1
Format : MPEG Audio
Format version : Version 1
Format profile : Layer 3
Codec ID : 55
Codec ID/Hint : MP3
Duration : 1h 44mn
Bit rate mode : Constant
Bit rate : 192 Kbps
Channel(s) : 2 channels
Sampling rate : 44.1 KHz
Video delay : 26ms
Stream size : 144 MiB (16%)
Alignment : Split accross interleaves
Interleave, duration : 33 ms (1.00 video frame)
Title : Audio Stream
Writing library : LAME3.92


Re: Potomci lidí / Children of Men (2006)


Bez hesla
Přidán záznam na opravu dat 5%


22 čer 2011, 18:27
Profil
Colonel 4 th class
Colonel 4 th class

Registrován: 04 dub 2009, 19:03
Příspěvky: 557
Příspěvek Re: Potomci lidí / Children of Men (2006)

Children.of.Men.2006.480p.BRRip.XviD.AC3.Cz.jDM
POTOMCI LIDÍ ( Children of Men) 2006

Re: Potomci lidí / Children of Men (2006)

Planeta Země, rok 2027. Už devatenáct let se nenarodilo jediné dítě. Svět podléhá beznaději a anarchii a po čím dál zoufalejších pokusech o nalezení a odstranění příčiny neplodnosti lidstva už jen čeká na zázrak. Do nedaleké budoucnosti nás ve své temné a šokující vizi uvádí režisér Alfonso Cuarón (Mexická jízda, Harry Potter a vězeň z Azkabanu), který se inspiroval slavnou stejnojmennou sci-fi novelou královny detektivek P. D. James. Díky totalitnímu zřízení dokáže jediná Velká Británie odolávat všeobjímajícímu chaosu.

CSFD - IMBD


INFO


Re: Potomci lidí / Children of Men (2006)
Re: Potomci lidí / Children of Men (2006)

DELETED

Children.of.Men.2006.720p.BRRip.XviD.AC3.Cz.jDM
POTOMCI LIDÍ ( Children of Men) 2006

INFO


Re: Potomci lidí / Children of Men (2006)
Re: Potomci lidí / Children of Men (2006)

DELETED


Naposledy upravil ladan dne 04 čer 2012, 06:27, celkově upraveno 1
Smazány nefunkční odkazy


23 črc 2011, 06:01
Profil
Warman
Warman
Uživatelský avatar

Registrován: 25 bře 2007, 10:21
Příspěvky: 4181
Příspěvek Potomci lidí / Children of Men (2006)

Potomci lidí / Children of Men (2006)

CSFD:



RLS iNFO


Potomci lidí / Children of Men (2006)

Potomci lidí / Children of Men (2006)

VIDEO :

_________________
i_m_a_g_e


i_m_a_g_e


31 bře 2012, 08:59
Profil
Private 2 nd class
Private 2 nd class
Uživatelský avatar

Registrován: 28 lis 2008, 23:37
Příspěvky: 46
Příspěvek Re: Potomci lidí / Children of Men (2006)

Potomci lidí / Children of Men (2006)
DVDrip 624x352pixels 2006.CZdubbing

Re: Potomci lidí / Children of Men (2006)

CSFD


INFO


DOWNLOAD


07 říj 2013, 08:22
Profil
Zobrazit příspěvky za předchozí:  Seřadit podle  
Odeslat nové téma Odpovědět na téma  [ Příspěvků: 4 ] 

Všechny časy jsou v UTC + 1 hodina


Nemůžete zakládat nová témata v tomto fóru
Nemůžete odpovídat v tomto fóru
Nemůžete upravovat své příspěvky v tomto fóru
Nemůžete mazat své příspěvky v tomto fóru
Nemůžete přikládat soubory v tomto fóru









StahovaniZaSMS Pizza Modena MP3 free download