fastshare
Trainspotting (1996)
Vypnout statistiky
KATEGORIEPOSLEDNÍ PŘÍSPĚVKYPOSLEDNÍ OZNÁMENÍSTATISTIKY UŽIVATELE
Nick: Anonymous
Příspěvků: 3819
Hodnost: Warman
Varování: 0
---
Právě je 29 lis 2014, 06:50




Všechny časy jsou v UTC + 1 hodina


Pravidla fóra







Odeslat nové téma Odpovědět na téma  [ Příspěvků: 3 ] 
 Trainspotting (1996) 
Autor Zpráva
Colonel 4 th class
Colonel 4 th class

Registrován: 04 dub 2009, 19:03
Příspěvky: 557
Příspěvek Trainspotting (1996)

Trainspotting (Trainspotting) 1996
Trainspotting.1996.480p.BRRip.Xvid.CZ.jDM

Trainspotting (1996)

Přeslavný, kultovní, vtipný i tragický zároveň a místy taky lehce nechutný film o drogách z dílny Dannyho Boyla. Jeden vůbec z nejpřesvědčivějších v daném žánru.
Líčí bez obalu všední životy edinburgských feťáků a skrývá v sobě nejen nezbytné poselství, ale především poučení pro další drogychtivé generace. Ústřední postavou je (stejně jako v taktéž slavné knize Irvina Welshe, jejíž adaptací snímek je) asociální mladík jménem Mark Renton, jenž nechodí do školy, ba ani do práce - povětšinu času se stará jen o to své. Totiž denní dávku heroinu. Obdobný osud mají také jeho ,,takzvaní kámoši'' - Spud (tak trochu roztěkaný, ale upřímný ňouma, co má zálibu v drogách jako každý jiný), Sickboy (poměrně sofistikovaný fanda Jamese Bonda - s duší obchodníka) a konečně výjimka potvrzující pravidlo - Mr. Francis Babgie (řezník, jehož jedinou zálibou je řezat lidi, nikoliv drogy). Film v podstatě líčí jediné - cestu Marka Renona z pekla feťáků zpátky nahoru, mezi tzv. ,,normální'' lid. Jeho ,,cesta ven'' je doprovázena různými bizarními historkami a glosami, aby nakonec došel k nevyhnutelnému zjištění, že jestli chce přestat brát, najít si práci a být ,,stejný jako vy'', musí se nutně zbavit svých tzv. kámošů a zkusit štěstí jinde a jinak... Otázka ovšem zní: Je tohle ten život, co si chce vybrat, aby ho učinil šťastným a spokojeným člověkem? Nebo je to jiná, společensky přijatelnější cesta do pekel?


CSFD - FDB


SCREEN + INFO
Trainspotting (1996)

DOWNLOAD - HOTFILE


DOWNLOAD - QUICKSHARE


DOWNLOAD - SHARERAPID


LINKY LZE KOMBINOVAT
BEZ HESLA


01 zář 2010, 21:14
Profil
Sergeant
Sergeant

Registrován: 25 dub 2011, 21:16
Příspěvky: 86
Příspěvek Re: Trainspotting (1996)

Trainspotting

Re: Trainspotting (1996)

Drama, Velká Británie, 1996

Režie:
Danny Boyle
Hrají:
Ewan McGregor, Ewen Bremner, Jonny Lee Miller, Kevin McKidd, Robert Carlyle, Kelly Macdonald, Peter Mullan, James Cosmo, Susan Vidler, Shirley Henderson, Irvine Welsh, Keith Allen, Kevin Allen, John Hodge



Trainspotting(CZ dabing).avi (802 MB)
Audio: 2 channels | MP3 128 Kbps Variable
Video: 704×384px – 16 | DivX 5 (AVI) | 1 107 Kbps | 25.000 fps



17 led 2013, 13:17
Profil
Warrant
Warrant

Registrován: 30 pro 2007, 17:16
Příspěvky: 183
Příspěvek Re: Trainspotting (1996)

Trainspotting (1996)
DVDRip
Audio: CZ AC-3

Re: Trainspotting (1996)



Citace:
Format : AVI
File size : 1.76 GiB
Duration : 1h 30mn
Overall bit rate : 2 788 Kbps

Video
Format : MPEG-4 Visual
Format profile : Advanced Simple@L5
Format settings, Matrix : Custom
Codec ID/Hint : XviD
Duration : 1h 30mn
Bit rate : 2 337 Kbps
Width : 720 pixels
Height : 416 pixels
Display aspect ratio : 1.731
Frame rate : 25.000 fps
Color space : YUV
Chroma subsampling : 4:2:0
Bit depth : 8 bits
Scan type : Progressive
Compression mode : Lossy
Bits/(Pixel*Frame) : 0.312
Stream size : 1.47 GiB (84%)

Audio
ID : 1
Format : AC-3
Format/Info : Audio Coding 3
Mode extension : CM (complete main)
Format settings, Endianness : Big
Codec ID : 2000
Duration : 1h 29mn
Bit rate mode : Constant
Bit rate : 448 Kbps
Channel count : 6 channels
Channel positions : Front: L C R, Side: L R, LFE
Sampling rate : 48.0 KHz
Bit depth : 16 bits
Compression mode : Lossy
Stream size : 287 MiB (16%)
Alignment : Split accross interleaves
Interleave, duration : 97 ms (2.42 video frames)
Interleave, preload duration : 96 ms
Language : Czech


Fastshare


16 dub 2014, 02:56
Profil
Zobrazit příspěvky za předchozí:  Seřadit podle  
Odeslat nové téma Odpovědět na téma  [ Příspěvků: 3 ] 

Všechny časy jsou v UTC + 1 hodina


Nemůžete zakládat nová témata v tomto fóru
Nemůžete odpovídat v tomto fóru
Nemůžete upravovat své příspěvky v tomto fóru
Nemůžete mazat své příspěvky v tomto fóru
Nemůžete přikládat soubory v tomto fóru









StahovaniZaSMS Pizza Modena MP3 free download