fastshare
Pán prstenů: Návrat krále / Lord of the Rings (2003)
Vypnout statistiky
KATEGORIEPOSLEDNÍ PŘÍSPĚVKYPOSLEDNÍ OZNÁMENÍSTATISTIKY UŽIVATELE
Nick: Anonymous
Příspěvků: 3820
Hodnost: Warman
Varování: 0
---
Právě je 30 říj 2014, 13:05




Všechny časy jsou v UTC + 1 hodina


Pravidla fóra







Odeslat nové téma Odpovědět na téma  [ Příspěvků: 3 ] 
 Pán prstenů: Návrat krále / Lord of the Rings (2003) 
Autor Zpráva
Captain
Captain
Uživatelský avatar

Registrován: 24 srp 2010, 12:06
Příspěvky: 290
Příspěvek Pán prstenů: Návrat krále / Lord of the Rings (2003)

Pán prstenů: Návrat krále (2003)

DVDRip CZ
Pán prstenů: Návrat krále / Lord of the Rings (2003)

Pán prstenů: Návrat krále / Lord of the Rings (2003)

Fantasy / Dobrodružný / Akční
USA / Nový Zéland, 2003, 201 min (SE: 263 min)


Režie: Peter Jackson
Hudba: Howard Shore
Hrají: Elijah Wood, Noel Appleby, Billy Boyd, Dominic Monaghan, Sean Astin, Ian McKellen, Viggo Mortensen, Orlando Bloom, Liv Tyler, Christopher Lee, Cate Blanchett, John Rhys-Davies, Bernard Hill, Brad Dourif, Miranda Otto, Marton Csokas, Hugo Weaving, Karl Urban, Sean Bean, David Wenham, John Noble, Andy Serkis, Bruce Spence, Peter Jackson, Lawrence Makoare, Billy Jackson, Bret McKenzie, Sala Baker, Joel Tobeck, Alan Howard, Peter Tait, John Bach, Ian Holm, Bruce Hopkins, Pete Smith, Jed Brophy, Bruce Phillips, Shane Rangi, Harry Sinclair
___________________________________
Citace:
Nadchází čas rozhodující bitvy o přežití Středozemě. Putování jednotlivých členů Společenstva prstenu se dostává do poslední a rozhodující fáze. Čaroděj Gandalf, elf Legolas a trpaslík Gimli spěchají s dědicem trůnu Aragornem na pomoc zemi Gondor, která odolává ohromnému Sauronovu vojsku. Hobiti Frodo a Sam se v doprovodu Gluma snaží dostat hluboko do země Mordor, kde musí v ohních Hory osudu zničit magický Prsten moci. Jedině tak bude síla mocného pána temnot Saurona zlomena. Podaří se jim naplnit poslání Společenstva a zachránit Středozem? A za jakou cenu?


Pán prstenů: Návrat krále / Lord of the Rings (2003)
Citace:
Format : AVI
Format/Info : Audio Video Interleave
File size : 1.37 GiB
Duration : 3h 12mn
Overall bit rate : 1 018 Kbps
Writing application : VirtualDubMod 1.5.4.1 (build 2178/release)
Writing library : VirtualDub build 30016/release

Video
ID : 0
Format : MPEG-4 Visual
Format profile : Advanced Simple@L5
Format settings, BVOP : Yes
Format settings, QPel : No
Format settings, GMC : No warppoints
Format settings, Matrix : Custom
Codec ID : XVID
Codec ID/Hint : XviD
Duration : 3h 12mn
Bit rate : 560 Kbps
Width : 560 pixels
Height : 240 pixels
Display aspect ratio : 2.35:1
Frame rate : 25.000 fps
Color space : YUV
Chroma subsampling : 4:2:0
Bit depth : 8 bits
Scan type : Progressive
Bits/(Pixel*Frame) : 0.167
Stream size : 773 MiB (55%)
Writing library : XviD 1.2.0.dev47 (UTC 2006-11-01)

Audio
ID : 1
Format : AC-3
Format/Info : Audio Coding 3
Mode extension : CM (complete main)
Codec ID : 2000
Duration : 3h 12mn
Bit rate mode : Constant
Bit rate : 448 Kbps
Channel(s) : 6 channels
Channel positions : Front: L C R, Side: L R, LFE
Sampling rate : 48.0 KHz
Bit depth : 16 bits
Stream size : 618 MiB (44%)
Alignment : Split accross interleaves
Interleave, duration : 40 ms (1.00 video frame)
Interleave, preload duration : 500 ms


Pán prstenů: Návrat krále / Lord of the Rings (2003)

Pán prstenů: Návrat krále / Lord of the Rings (2003)



_________________
!!!!!-Mam pomalý upload, tak prosim trochu úcty-!!!!!


Naposledy upravil ladan dne 17 pro 2012, 15:02, celkově upraveno 1
Téma vyčištěno


28 lis 2012, 21:43
Profil
Warrant
Warrant

Registrován: 30 říj 2009, 15:26
Příspěvky: 175
Příspěvek Re: Pán prstenů: Návrat krále / Lord of the Rings (2003)

Pán prstenů: Návrat krále / The Lord of the Rings: The Return of the King (2003) 720p MKV
Re: Pán prstenů: Návrat krále / Lord of the Rings (2003)



Bez hesla, obsahuje zaznam na opravu dat 5% !

_________________
Moje nefunkční uploady hlaste do PM :)


02 úno 2013, 17:18
Profil
Master Sergant
Master Sergant
Uživatelský avatar

Registrován: 28 črc 2009, 12:41
Příspěvky: 131
Příspěvek Re: Pán prstenů: Návrat krále / Lord of the Rings (2003)

:-_-:

Re: Pán prstenů: Návrat krále / Lord of the Rings (2003)

__.__

Pán prstenů: Návrat krále (2003) - Anub1ss

720:480 NTSC
Codec: H.264
Formát: AVI
Celkový BitRate: 2608 Kbps
Video BitRate: 2160 Kbps
25 fps, 48 Khz
3,53 GB
Audio: AC3 5.1 448 kbps (48000Hz) CZ

Fantasy / Dobrodružný / Akční

USA / Nový Zéland, 2003, 201 min (SE: 263 min)

Režie: Peter Jackson
Předloha: John Ronald Reuel Tolkien (kniha)
Scénář: Fran Walsh, Philippa Boyens, Peter Jackson
Kamera: Andrew Lesnie
Hudba: Howard Shore

Hrají:
Elijah Wood, Noel Appleby, Billy Boyd, Dominic Monaghan, Sean Astin, Ian McKellen, Viggo Mortensen, Orlando Bloom, Liv Tyler, Christopher Lee, Cate Blanchett, John Rhys-Davies, Bernard Hill, Brad Dourif, Miranda Otto, Marton Csokas, Hugo Weaving, Karl Urban, Sean Bean, David Wenham, John Noble, Andy Serkis, Bruce Spence, Peter Jackson, Lawrence Makoare, Billy Jackson, Bret McKenzie, Sala Baker, Joel Tobeck, Alan Howard, Peter Tait, John Bach, Ian Holm, Bruce
Hopkins, Pete Smith, Jed Brophy, Bruce Phillips, Shane Rangi, Harry Sinclair

Obsah:
Nadchází čas rozhodující bitvy o přežití Středozemě. Putování jednotlivých členů Společenstva prstenu se dostává do poslední a rozhodující fáze. Čaroděj Gandalf, elf Legolas a trpaslík Gimli spěchají s dědicem trůnu Aragornem na pomoc zemi Gondor, která odolává ohromnému Sauronovu vojsku. Hobiti Frodo a Sam se v doprovodu Gluma snaží dostat hluboko do země Mordor, kde musí v ohních Hory osudu zničit magický Prsten moci. Jedině tak bude síla mocného pána temnot Saurona zlomena. Podaří se jim naplnit poslání Společenstva a zachránit Středozem? A za jakou cenu?

)..(

_________________
OS: Windows 8.1 Enterprise x64
CPU: AMD Phenom II X6 1090T Black Edition (3.8 GHz)
MB: Asus M5A97 PRO
RAM: Evolve Zeppelin Gold DDR3 1800MHz 4x2GB (8Gb)
GPU: AMD Sapphire Vapor-X R9 270X 2GB GPU 1100 MHz, GDDR5 5800 MHz
Zdroj: Crono CR-750W
Disk: SSD OCZ Vertex 460 -120GB + HDD WD Black (FZEX) - 4TB


16 bře 2014, 02:44
Profil
Zobrazit příspěvky za předchozí:  Seřadit podle  
Odeslat nové téma Odpovědět na téma  [ Příspěvků: 3 ] 

Všechny časy jsou v UTC + 1 hodina


Nemůžete zakládat nová témata v tomto fóru
Nemůžete odpovídat v tomto fóru
Nemůžete upravovat své příspěvky v tomto fóru
Nemůžete mazat své příspěvky v tomto fóru
Nemůžete přikládat soubory v tomto fóru









StahovaniZaSMS Pizza Modena MP3 free download