fastshare
Forrest Gump (1994)
Vypnout statistiky
KATEGORIEPOSLEDNÍ PŘÍSPĚVKYPOSLEDNÍ OZNÁMENÍSTATISTIKY UŽIVATELE
Nick: Anonymous
Příspěvků: 3383
Hodnost: Warman
Varování: 0
---
Právě je 11 pro 2017, 12:03





Všechny časy jsou v UTC + 1 hodina


Pravidla fóra







Odeslat nové téma Odpovědět na téma  [ Příspěvků: 15 ] 
 Forrest Gump (1994) 
Autor Zpráva
Corporal
Corporal

Registrován: 27 bře 2009, 19:10
Příspěvky: 59
Příspěvek Forrest Gump (1994)

Forrest Gump (1994)

Forrest Gump (1994)

http://www.csfd.cz/film/10135-forrest-gump/

Velikost souboru : 6,75 GiB
Duration/String : 2h 22mn
Celkový BitRate : 6 799 Kbps
Encoded date : UTC 2010-02-13 09:18:07
Použitý software : mkvmerge v3.0.0 ('Hang up your Hang-Ups') built on Dec 12 2009 15:20:35
Enkódoval : libebml v0.7.9 + libmatroska v0.8.1

Video
ID : 1
Formát : AVC
Formát/ : Advanced Video Codec
Format_Profile : [email protected]
Format_Settings_CABAC/String : Ano
Format_Settings_RefFrames/String : 5 frame
MuxingMode : Container [email protected]
CodecID : V_MPEG4/ISO/AVC
Duration/String : 2h 22mn
Bit rate : 4 962 Kbps
BitRate_Nominal/String : 5 095 Kbps
Šířka : 1 280pixely
Výška : 544pixely
Poměr stran : 2,35:1
Frame rate : 23,976 fps
Rozlišení : 24 bits
Colorimetry : 4:2:0
ScanType/String : Progressive
Bits/(Pixel*Frame) : 0.297
StreamSize/String : 4,92 GiB (73%)
Enkódoval : x264 core 78 r1301 bcba15d
Nastavení enkoderu : cabac=1 / ref=5 / deblock=1:0:0 / analyse=0x3:0x113 / me=umh / subme=7 / psy=1 / psy_rd=1.0:0.0 / mixed_ref=1 / me_range=16 / chroma_me=1 / trellis=1 / 8x8dct=1 / cqm=0 / deadzone=21,11 / chroma_qp_offset=-2 / threads=6 / nr=0 / decimate=1 / mbaff=0 / constrained_intra=0 / bframes=3 / b_pyramid=0 / b_adapt=1 / b_bias=0 / direct=1 / wpredb=1 / keyint=250 / keyint_min=25 / scenecut=40 / rc_lookahead=40 / rc=2pass / mbtree=1 / bitrate=5095 / ratetol=1.0 / qcomp=0.60 / qpmin=10 / qpmax=51 / qpstep=4 / cplxblur=20.0 / qblur=0.5 / ip_ratio=1.40 / aq=1:1.00
Jazyk : English

Audio #1
ID : 2
Formát : AC-3
Formát/ : Audio Coding 3
CodecID : A_AC3
Duration/String : 2h 22mn
Bit rate : 192 Kbps
Kanál(y) : 2 kanály
Channel positions : L R
Sampling rate : 48,0 KHz
Video delay : 1s 500ms
StreamSize/String : 195 MiB (3%)
Jazyk : Czech

Audio #2
ID : 3
Formát : DTS
Formát/ : Digital Theater Systems
CodecID : A_DTS
Duration/String : 2h 22mn
Bit rate : 1 510 Kbps
Kanál(y) : 6 kanály
Channel positions : Front: L C R, Surround: L R, LFE
Sampling rate : 48,0 KHz
Rozlišení : 24 bits
StreamSize/String : 1,50 GiB (22%)
Jazyk : English

Text #1
ID : 4
Formát : UTF-8
CodecID : S_TEXT/UTF8
/ : UTF-8 Plain Text
Jazyk : English

Text #2
ID : 5
Formát : UTF-8
CodecID : S_TEXT/UTF8
/ : UTF-8 Plain Text
Titul : Czech
Jazyk : Czech

Forrest Gump (1994)
Jen registrovaní uživatelé mohou vidět odkazy v code. Přihlaste se nebo zaregistrujte ZDARMA.


Forrest Gump (1994)
Jen registrovaní uživatelé mohou vidět odkazy v code. Přihlaste se nebo zaregistrujte ZDARMA.

pass není / NO PASS

_________________
Prosím nepište mě správy protože už (neuploaduju) jedině kdyby měl nekdo zájem šířit moje linky klidně upnu většinu HD filmů a aji vetšinu seriálů. Domluva ve soukromé správě.
Jen HD filmy 720 nebo 1080p.


Naposledy upravil ladan dne 30 pro 2011, 01:26, celkově upraveno 2
Smazány nefunkční odkazy


06 črc 2010, 09:44
Profil
Colonel 4 th class
Colonel 4 th class
Uživatelský avatar

Registrován: 11 kvě 2009, 20:22
Příspěvky: 539
Příspěvek Re: Forrest Gump (1994)

Forrest Gump (1994) / Multidabing CZ-EN + TITULKY
Release: Forrest.Gump.1994.1080p.BluRay.x264-CiNEFiLE

Audio: CZ AC3 2.0, EN DTS 5.1
Titulky: CZ, EN

    Re: Forrest Gump (1994)

Csfd
Jen registrovaní uživatelé mohou vidět odkazy v code. Přihlaste se nebo zaregistrujte ZDARMA.

Info
Jen registrovaní uživatelé mohou vidět odkazy v code. Přihlaste se nebo zaregistrujte ZDARMA.

Fileserve.com
Jen registrovaní uživatelé mohou vidět odkazy v code. Přihlaste se nebo zaregistrujte ZDARMA.

Filesonic.com
DELETED

No password | 500mb parts | Interchanable links | 5% Recovery Record

_________________
"Led Zeppelin — the only way to fly"


Naposledy upravil ladan dne 30 pro 2011, 01:41, celkově upraveno 2
Smazány nefunkční odkazy


18 led 2011, 21:43
Profil
Uploader
Uploader

Registrován: 06 zář 2009, 12:17
Příspěvky: 336
Příspěvek Re: Forrest Gump (1994)

Forrest Gump

(Forrest.Gump.1994.1080p.BluRay.x264-CiNEFiLE.CZ)

Re: Forrest Gump (1994)

Re: Forrest Gump (1994)
Jen registrovaní uživatelé mohou vidět odkazy v code. Přihlaste se nebo zaregistrujte ZDARMA.


Re: Forrest Gump (1994)
Jen registrovaní uživatelé mohou vidět odkazy v code. Přihlaste se nebo zaregistrujte ZDARMA.



Film (2GB parts)

Re: Forrest Gump (1994)
Jen registrovaní uživatelé mohou vidět odkazy v code. Přihlaste se nebo zaregistrujte ZDARMA.


Re: Forrest Gump (1994)
Jen registrovaní uživatelé mohou vidět odkazy v code. Přihlaste se nebo zaregistrujte ZDARMA.


Re: Forrest Gump (1994)
DELETED

Linky se dají kombinovat

Přidán záznam pro opravu dat

_________________
Pro stahování doporučuji použít Jdownloader


Naposledy upravil ladan dne 30 pro 2011, 01:40, celkově upraveno 2
Smazány nefunkční odkazy


08 bře 2011, 22:25
Profil
Sergeant
Sergeant

Registrován: 10 kvě 2009, 16:58
Příspěvky: 84
Příspěvek Re: Forrest Gump (1994)

Forrest Gump (1994) / 1080 / CZ


Re: Forrest Gump (1994)


Drama / Komedie / Romantický
USA, 1994, 142 min

Režie: Robert Zemeckis
Hrají: Tom Hanks, Robin Wright, Gary Sinise, Mykelti Williamson, Sally Field, Haley Joel Osment, Peter Dobson, Siobhan Fallon, Hanna Hall, Brett Rice, Kirk Ward, Kurt Russell, Stephen Bridgewater, Michael Jace, Michael McFall, Joe Alaskey, Sam Anderson, Jacqueline Lovell

Zemeckisův film je brilantním shrnutím dosavadních režisérových poznatků o možnostech "comicsového" vyprávění. Formálně i obsahově nejméně konvenční z jeho snímků přesvědčuje komediálními gagy i naléhavě patetickým tónem. Jeho hrdinou je prosťáček Forrest Gump, typický obyčejný muž, který od dětství dělal, co se mu řeklo. Do života si tak odnesl několik ponaučení své pečlivé maminky a osvědčené pravidlo, jež se mu hodí mnohokrát v nejrůznějších situacích: Když se dostaneš do problémů, utíkej. Forrest proutíká školou, jako hráč amerického fotbalu i univerzitou, potom peklem vietnamské války a zoufalstvím nad ..

http://www.csfd.cz/film/10135-forrest-gump/

Format : Matroska
File size : 10.0 GiB
Duration : 2h 22mn
Overall bit rate : 10.1 Mbps
Movie name : Forrest.Gump.1080p.Bluray.x264.by.Mario.Andretti
Encoded date : UTC 2009-12-26 19:34:53
Writing application : mkvmerge v2.9.7 ('Tenderness') built on Jul 1 2009 18:43:35
Writing library : libebml v0.7.7 + libmatroska v0.8.1

Video
ID : 1
Format : AVC
Format/Info : Advanced Video Codec
Format profile : [email protected]
Format settings, CABAC : Yes
Format settings, ReFrames : 5 frames
Muxing mode : Container [email protected]
Codec ID : V_MPEG4/ISO/AVC
Duration : 2h 22mn
Bit rate : 9 501 Kbps
Width : 1 920 pixels
Height : 816 pixels
Display aspect ratio : 2.35:1
Frame rate : 23.976 fps
Color space : YUV
Chroma subsampling : 4:2:0
Bit depth : 8 bits
Scan type : Progressive
Bits/(Pixel*Frame) : 0.253
Stream size : 9.24 GiB (92%)
Title : Forrest Gump (1994) Bluray Czech version
Writing library : x264 core 78 r1301 bcba15d
Encoding settings : cabac=1 / ref=5 / deblock=1:0:0 / analyse=0x3:0x113 / me=umh / subme=7 / psy=1 / psy_rd=1.0:0.0 / mixed_ref=1 / me_range=16 / chroma_me=1 / trellis=1 / 8x8dct=1 / cqm=0 / deadzone=21,11 / chroma_qp_offset=-2 / threads=6 / nr=0 / decimate=1 / mbaff=0 / constrained_intra=0 / bframes=3 / b_pyramid=0 / b_adapt=1 / b_bias=0 / direct=1 / wpredb=1 / keyint=250 / keyint_min=25 / scenecut=40 / rc_lookahead=40 / rc=2pass / mbtree=1 / bitrate=9501 / ratetol=1.0 / qcomp=0.60 / qpmin=10 / qpmax=51 / qpstep=4 / cplxblur=20.0 / qblur=0.5 / ip_ratio=1.40 / aq=1:1.00

Audio #1
ID : 2
Format : AC-3
Format/Info : Audio Coding 3
Mode extension : CM (complete main)
Codec ID : A_AC3
Duration : 2h 22mn
Bit rate mode : Constant
Bit rate : 224 Kbps
Channel(s) : 2 channels
Channel positions : Front: L R
Sampling rate : 48.0 KHz
Stream size : 228 MiB (2%)
Title : DD 2.0
Language : Czech

Audio #2
ID : 3
Format : AC-3
Format/Info : Audio Coding 3
Mode extension : CM (complete main)
Codec ID : A_AC3
Duration : 2h 22mn
Bit rate mode : Constant
Bit rate : 384 Kbps
Channel(s) : 6 channels
Channel positions : Front: L C R, Side: L R, LFE
Sampling rate : 48.0 KHz
Stream size : 390 MiB (4%)
Title : DD 5.1
Language : English

Text
ID : 4
Format : UTF-8
Codec ID : S_TEXT/UTF8
Codec ID/Info : UTF-8 Plain Text
Language : Czech

Re: Forrest Gump (1994)
Jen registrovaní uživatelé mohou vidět odkazy v code. Přihlaste se nebo zaregistrujte ZDARMA.

bez hesla


Naposledy upravil ladan dne 30 pro 2011, 01:38, celkově upraveno 1
Smazány nefunkční odkazy a obrázky


06 kvě 2011, 17:17
Profil
Major
Major

Registrován: 22 lis 2011, 10:12
Příspěvky: 314
Příspěvek Re: Forrest Gump (1994)

Forrest Gump (1994) [1080p]

Re: Forrest Gump (1994)

Info:

CSFD: http://www.csfd.cz/film/10135

Formát : Matroska
Velikost souboru: 8,93 GiB
Duration/String: 2h 19mn
Celkový BitRate: 9 160 Kbps

Video
Duration/String: 2h 19mn
Bit rate: 8 126 Kbps
Šířka: 1 920pixely
Výška: 800pixely

Audio #1
CodecID: A_AC3
Duration/String: 2h 19mn
Bit rate: 448 Kbps
Kanál(y): 6 kanály
Jazyk: English

Audio #2
CodecID: A_AC3
Duration/String: 2h 19mn
Bit rate: 192 Kbps
Kanál(y): 2 kanály
Jazyk : Czech

Download:
www.hellshare.com

Jen registrovaní uživatelé mohou vidět odkazy v code. Přihlaste se nebo zaregistrujte ZDARMA.


29 pro 2011, 23:53
Profil
Master Sergant
Master Sergant

Registrován: 13 bře 2007, 15:38
Příspěvky: 139
Příspěvek Re: Forrest Gump (1994)

Re: Forrest Gump (1994)
    Forrest Gump / 1994 / 1080p / AC3 2.0 CZ / AC3 5.1 ENG

    Re: Forrest Gump (1994)
Re: Forrest Gump (1994)
Jen registrovaní uživatelé mohou vidět odkazy v code. Přihlaste se nebo zaregistrujte ZDARMA.

Re: Forrest Gump (1994)
Jen registrovaní uživatelé mohou vidět odkazy v code. Přihlaste se nebo zaregistrujte ZDARMA.

Re: Forrest Gump (1994)
    HELLSHARE:

Jen registrovaní uživatelé mohou vidět odkazy v code. Přihlaste se nebo zaregistrujte ZDARMA.

    EDISK:

Jen registrovaní uživatelé mohou vidět odkazy v code. Přihlaste se nebo zaregistrujte ZDARMA.

    EUROSHARE:

Jen registrovaní uživatelé mohou vidět odkazy v code. Přihlaste se nebo zaregistrujte ZDARMA.

    CZSHARE:

Jen registrovaní uživatelé mohou vidět odkazy v code. Přihlaste se nebo zaregistrujte ZDARMA.

    LINKY SU KOMBINOVATELNE !


13 led 2012, 15:31
Profil
Colonel 2 nd class
Colonel 2 nd class
Uživatelský avatar

Registrován: 18 úno 2008, 17:27
Příspěvky: 428
Příspěvek Re: Forrest Gump (1994)

Název: Forrest Gump (1994)

Zdroj: Forrest.Gump.1994.1080p.BluRay.x264-CiNEFiLE.En.Cz

Re: Forrest Gump (1994)

Re: Forrest Gump (1994)


Re: Forrest Gump (1994)

Jen registrovaní uživatelé mohou vidět odkazy v code. Přihlaste se nebo zaregistrujte ZDARMA.


Re: Forrest Gump (1994)

Citace:
Drama / Komedie / Romantický
USA, 1994, 142 min


CSFD 95 %
IMDb Rating 8.7


Režie: Robert Zemeckis
Hudba: Alan Silvestri
Hrají: Tom Hanks, Robin Wright, Gary Sinise, Mykelti Williamson, Sally Field, Haley Joel Osment, Peter Dobson, Siobhan Fallon, Hanna Hall, Brett Rice, Kirk Ward, Kurt Russell, Stephen Bridgewater, Michael Jace, Michael McFall, Joe Alaskey, Sam Anderson, Jacqueline Lovell, Mary Ellen Trainor, Vanessa Roth


Zemeckisův film je brilantním shrnutím dosavadních režisérových poznatků o možnostech "comicsového" vyprávění. Formálně i obsahově nejméně konvenční z jeho snímků přesvědčuje komediálními gagy i naléhavě patetickým tónem. Jeho hrdinou je prosťáček Forrest Gump, typický obyčejný muž, který od dětství dělal, co se mu řeklo. Do života si tak odnesl několik ponaučení své pečlivé maminky a osvědčené pravidlo, jež se mu hodí mnohokrát v nejrůznějších situacích: Když se dostaneš do problémů, utíkej. Forrest proutíká školou, jako hráč amerického fotbalu i univerzitou, potom peklem vietnamské války a zoufalstvím nad matčinou smrtí. Vždycky je totiž někdo nebo něco, co po něm skutečně či obrazně "hází kameny". Nakonec však Forrest poznává, že jsou i jiná řešení situací než útěk. Svůj život spojuje s kamarádkou ze školy Jenny, která pro něj zůstane provždycky jedinou láskou, s přítelem z vojny, černochem Bubbou, který dá směr jeho úvahám o lovu krevet a s poručíkem Taylorem, jemuž ve Vietnamu zachrání život. Forrestova životní pouť od 50. do 80. let je koncipovaná jako totálně "bezelstné" vyprávění hrdiny, neschopného obecnějšího hodnocení situace. Forrest jako sportovec i jako válečný hrdina se setkává se slavnými lidmi, které nakonec vždycky někdo zastřelí (J. F. Kennedy, J. Lennon). Také jeho bližní umírají, ale on sám zůstává. Empiricky se dopracovává od impulsivního útěku před životem k úvahám o lidském osudu a o Bohu. Soukromý hrdinův osud zároveň postihuje třicet let poválečných amerických dějin.

Snímek je doslova prošpikován nejrůznějšími kulturními i společenskými odkazy, viděnými ovšem bizarně naivním pohledem hlavního hrdiny, úzce soustředěným na několik hlavních nehodnotících hledisek. Film vedle výjimečného citu pro metaforu a brilantních humorných scén překvapuje patetickým tónem a nezvyklou melancholií. Důležité místo zde mají technicky dokonalé triky ve stylu Allenova Zeliga, dovolující hrdinovi vstoupit do dobových dokumentů a setkat se tak s význačnými osobnostmi. (oficiální text distributora)


Complete name : D:\filmy download\forest gump\Forrest.Gump.1994.1080p.BluRay.x264-CiNEFiLE.mkv
Format : Matroska
File size : 11.2 GiB
Duration : 2h 22mn
Overall bit rate : 11.2 Mbps
Encoded date : UTC 2010-08-24 07:44:54
Writing application : mkvmerge v3.0.0 ('Hang up your Hang-Ups') built on Dec 12 2009 15:20:35
Writing library : libebml v0.7.9 + libmatroska v0.8.1

Video
ID : 1
Format : AVC
Format/Info : Advanced Video Codec
Format profile : [email protected]
Format settings, CABAC : Yes
Format settings, ReFrames : 5 frames
Muxing mode : Container [email protected]
Codec ID : V_MPEG4/ISO/AVC
Duration : 2h 22mn
Bit rate : 9 277 Kbps
Nominal bit rate : 9 501 Kbps
Width : 1 920 pixels
Height : 816 pixels
Display aspect ratio : 2.35
Frame rate : 23.976 fps
Resolution : 24 bits
Colorimetry : 4:2:0
Scan type : Progressive
Bits/(Pixel*Frame) : 0.247
Stream size : 9.20 GiB (82%)
Writing library : x264 core 78 r1301 bcba15d
Encoding settings : cabac=1 / ref=5 / deblock=1:0:0 / analyse=0x3:0x113 / me=umh / subme=7 / psy=1 / psy_rd=1.0:0.0 / mixed_ref=1 / me_range=16 / chroma_me=1 / trellis=1 / 8x8dct=1 / cqm=0 / deadzone=21,11 / chroma_qp_offset=-2 / threads=6 / nr=0 / decimate=1 / mbaff=0 / constrained_intra=0 / bframes=3 / b_pyramid=0 / b_adapt=1 / b_bias=0 / direct=1 / wpredb=1 / keyint=250 / keyint_min=25 / scenecut=40 / rc_lookahead=40 / rc=2pass / mbtree=1 / bitrate=9501 / ratetol=1.0 / qcomp=0.60 / qpmin=10 / qpmax=51 / qpstep=4 / cplxblur=20.0 / qblur=0.5 / ip_ratio=1.40 / aq=1:1.00
Language : English

Audio #1
ID : 2
Format : AC-3
Format/Info : Audio Coding 3
Codec ID : A_AC3
Duration : 2h 22mn
Bit rate mode : Constant
Bit rate : 224 Kbps
Channel(s) : 2 channels
Channel positions : L R
Sampling rate : 48.0 KHz
Stream size : 228 MiB (2%)
Language : Czech

Audio #2
ID : 3
Format : DTS
Format/Info : Digital Theater Systems
Codec ID : A_DTS
Duration : 2h 22mn
Bit rate mode : Constant
Bit rate : 1 510 Kbps
Channel(s) : 6 channels
Channel positions : Front: L C R, Surround: L R, LFE
Sampling rate : 48.0 KHz
Resolution : 24 bits
Stream size : 1.50 GiB (13%)
Language : English

Text #1
ID : 4
Format : UTF-8
Codec ID : S_TEXT/UTF8
Codec ID/Info : UTF-8 Plain Text
Title : Czech
Language : Czech

Text #2
ID : 5
Format : UTF-8
Codec ID : S_TEXT/UTF8
Codec ID/Info : UTF-8 Plain Text
Title : English
Language : English



Re: Forrest Gump (1994)

Re: Forrest Gump (1994)

Jen registrovaní uživatelé mohou vidět odkazy v code. Přihlaste se nebo zaregistrujte ZDARMA.


Re: Forrest Gump (1994)

Jen registrovaní uživatelé mohou vidět odkazy v code. Přihlaste se nebo zaregistrujte ZDARMA.


Re: Forrest Gump (1994)

Jen registrovaní uživatelé mohou vidět odkazy v code. Přihlaste se nebo zaregistrujte ZDARMA.



Re: Forrest Gump (1994)

Jen registrovaní uživatelé mohou vidět odkazy v code. Přihlaste se nebo zaregistrujte ZDARMA.


03 bře 2012, 02:52
Profil
Colonel
Colonel

Registrován: 10 led 2011, 23:37
Příspěvky: 354
Příspěvek Re: Forrest Gump (1994)

Forrest Gump / 720p / 1994 / CZ,EN+EN,CZ titulky
Forrest.Gump.1994.720p.BluRay.x264-SiNNERS
Re: Forrest Gump (1994)
Jen registrovaní uživatelé mohou vidět odkazy v code. Přihlaste se nebo zaregistrujte ZDARMA.


Jen registrovaní uživatelé mohou vidět odkazy v code. Přihlaste se nebo zaregistrujte ZDARMA.


Hellshare
Jen registrovaní uživatelé mohou vidět odkazy v code. Přihlaste se nebo zaregistrujte ZDARMA.


FastShare
Jen registrovaní uživatelé mohou vidět odkazy v code. Přihlaste se nebo zaregistrujte ZDARMA.


Share-rapid
Jen registrovaní uživatelé mohou vidět odkazy v code. Přihlaste se nebo zaregistrujte ZDARMA.


Password:
Jen registrovaní uživatelé mohou vidět odkazy v code. Přihlaste se nebo zaregistrujte ZDARMA.

Zeby som odstavil aj ja SR? :/ PM...

_________________
Co je DEAD, je bohuzial DEAD a aj to DEAD ostane. Ja nic nemam.


22 čer 2012, 18:41
Profil
Warman
Warman
Uživatelský avatar

Registrován: 08 črc 2007, 10:57
Příspěvky: 8236
Příspěvek Re: Forrest Gump (1994)

Forrest Gump (1994)

Re: Forrest Gump (1994)
Drama / Komedie / Romantický
USA, 1994, 142 min
Jen registrovaní uživatelé mohou vidět odkazy v code. Přihlaste se nebo zaregistrujte ZDARMA.

Režie:
Robert Zemeckis
Hudba:
Alan Silvestri
Hrají:
Tom Hanks, Robin Wright, Gary Sinise, Mykelti Williamson, Sally Field, Haley Joel Osment,
Peter Dobson, Siobhan Fallon, Hanna Hall, Brett Rice, Kirk Ward, Kurt Russell,
Stephen Bridgewater, Michael Jace, Michael McFall, Joe Alaskey, Sam Anderson,
Jacqueline Lovell, Mary Ellen Trainor, Vanessa Roth

Obsah:

Zemeckisův film je brilantním shrnutím dosavadních režisérových poznatků o možnostech "comicsového"
vyprávění. Formálně i obsahově nejméně konvenční z jeho snímků přesvědčuje komediálními gagy i naléhavě
patetickým tónem. Jeho hrdinou je prosťáček Forrest Gump, typický obyčejný muž, který od dětství dělal,
co se mu řeklo. Do života si tak odnesl několik ponaučení své pečlivé maminky a osvědčené pravidlo, jež
se mu hodí mnohokrát v nejrůznějších situacích: Když se dostaneš do problémů, utíkej. Forrest proutíká
školou, jako hráč amerického fotbalu i univerzitou, potom peklem vietnamské války a zoufalstvím nad
matčinou smrtí. Vždycky je totiž někdo nebo něco, co po něm skutečně či obrazně "hází kameny". Nakonec
však Forrest poznává, že jsou i jiná řešení situací než útěk. Svůj život spojuje s kamarádkou ze školy
Jenny, která pro něj zůstane provždycky jedinou láskou, s přítelem z vojny, černochem Bubbou, který dá
směr jeho úvahám o lovu krevet a s poručíkem Taylorem, jemuž ve Vietnamu zachrání život. Forrestova
životní pouť od 50. do 80. let je koncipovaná jako totálně "bezelstné" vyprávění hrdiny, neschopného
obecnějšího hodnocení situace. Forrest jako sportovec i jako válečný hrdina se setkává se slavnými lidmi,
které nakonec vždycky někdo zastřelí (J. F. Kennedy, J. Lennon). Také jeho bližní umírají, ale on sám
zůstává. Empiricky se dopracovává od impulsivního útěku před životem k úvahám o lidském osudu a o Bohu.
Soukromý hrdinův osud zároveň postihuje třicet let poválečných amerických dějin.

Snímek je doslova prošpikován nejrůznějšími kulturními i společenskými odkazy, viděnými ovšem bizarně
naivním pohledem hlavního hrdiny, úzce soustředěným na několik hlavních nehodnotících hledisek. Film
vedle výjimečného citu pro metaforu a brilantních humorných scén překvapuje patetickým tónem a nezvyklou
melancholií. Důležité místo zde mají technicky dokonalé triky ve stylu Allenova Zeliga, dovolující hrdinovi
vstoupit do dobových dokumentů a setkat se tak s význačnými osobnostmi.


Citace:
DISC INFO:
Length: 2:22:09 (h:m:s)
Size: 35 498 766 336 bytes
Total Bitrate: 33,30 Mbps

VIDEO:

Codec Bitrate Description
----- ------- -----------
MPEG-4 AVC Video 26560 kbps 1080p / 23,976 fps / 16:9 / High Profile 4.1

AUDIO:

Codec Language Bitrate Description
----- -------- ------- -----------
DTS-HD Master Audio English 4094 kbps 5.1 / 48 kHz / 4094 kbps / 24-bit (DTS Core: 5.1 / 48 kHz / 1509 kbps / 24-bit / DN -4dB)
Dolby Digital Audio Czech 192 kbps 2.0 / 48 kHz / 192 kbps

SUBTITLES:

Codec Language Bitrate Description
----- -------- ------- -----------
Presentation Graphics English 37,418 kbps
Presentation Graphics English 25,295 kbps
Presentation Graphics English 35,869 kbps
Presentation Graphics English 49,572 kbps
Presentation Graphics Danish 31,251 kbps
Presentation Graphics Dutch 31,121 kbps
Presentation Graphics Finnish 27,970 kbps
Presentation Graphics French 31,162 kbps
Presentation Graphics French 44,119 kbps
Presentation Graphics French 20,872 kbps
Presentation Graphics German 34,248 kbps
Presentation Graphics German 46,169 kbps
Presentation Graphics German 22,953 kbps
Presentation Graphics Italian 32,680 kbps
Presentation Graphics Italian 42,264 kbps
Presentation Graphics Italian 20,776 kbps
Presentation Graphics Norwegian 29,390 kbps
Presentation Graphics Spanish 26,688 kbps
Presentation Graphics Spanish 45,203 kbps
Presentation Graphics Spanish 21,218 kbps
Presentation Graphics Swedish 31,613 kbps
Presentation Graphics Czech 18,438 kbps


Re: Forrest Gump (1994)
Re: Forrest Gump (1994)Spojit Total Commanderem
Re: Forrest Gump (1994)Re: Forrest Gump (1994)

czshare
Jen registrovaní uživatelé mohou vidět odkazy v code. Přihlaste se nebo zaregistrujte ZDARMA.

euroshare
Jen registrovaní uživatelé mohou vidět odkazy v code. Přihlaste se nebo zaregistrujte ZDARMA.

fastshare
Jen registrovaní uživatelé mohou vidět odkazy v code. Přihlaste se nebo zaregistrujte ZDARMA.

hellshare
Jen registrovaní uživatelé mohou vidět odkazy v code. Přihlaste se nebo zaregistrujte ZDARMA.

share-rapid
Jen registrovaní uživatelé mohou vidět odkazy v code. Přihlaste se nebo zaregistrujte ZDARMA.



Linky jsou kombinovatelné
Pokud se Ti tento upload líbí,kup si ORIGINÁLNÍ VERZI
PODĚKOVÁNÍ VÁM NEUBLÍŽÍ A MĚ MOTIVUJE
Jak předejít infarktu?Poslat do řiti každého dřív,než Tě nasere,,,
enjoy_by_lepin
Re: Forrest Gump (1994)
Re: Forrest Gump (1994)


26 čer 2012, 00:17
Profil
Colonel 5 th class
Colonel 5 th class
Uživatelský avatar

Registrován: 19 srp 2011, 00:35
Příspěvky: 633
Příspěvek Re: Forrest Gump (1994)

Forrest Gump (Forrest Gump) CZ, ENG Dabing + CZ, ENG Titulky (1994) 720p BluRay
Re: Forrest Gump (1994)
Re: Forrest Gump (1994)
Jen registrovaní uživatelé mohou vidět odkazy v code. Přihlaste se nebo zaregistrujte ZDARMA.
Drama / Komedie / Romantický

USA, 1994, 142 min
Režie:
Robert Zemeckis
Hudba:
Alan Silvestri
Hrají:
Tom Hanks, Robin Wright, Gary Sinise, Mykelti Williamson, Sally Field, Haley Joel Osment, Peter Dobson, Siobhan Fallon, Hanna Hall, Brett Rice, Kirk Ward, Kurt Russell, Stephen Bridgewater, Michael Jace, Michael McFall, Joe Alaskey, Sam Anderson, Jacqueline Lovell, Mary Ellen Trainor, Vanessa Roth
__.__
Jen registrovaní uživatelé mohou vidět odkazy v code. Přihlaste se nebo zaregistrujte ZDARMA.
)..( Re: Forrest Gump (1994)
Jen registrovaní uživatelé mohou vidět odkazy v code. Přihlaste se nebo zaregistrujte ZDARMA.
__.__ Prosím bez reuploadu na Share-Rapid. Děkuji. Moje příspěvky vždy bez hesla!!! Uploaduji pouze na Share-Rapid.Com


Naposledy upravil martin16091981 dne 10 úno 2014, 08:22, celkově upraveno 2

10 led 2013, 13:10
Profil
Colonel 5 th class
Colonel 5 th class

Registrován: 05 úno 2013, 19:06
Příspěvky: 721
Příspěvek Re: Forrest Gump (1994)

Forrest.Gump.1994.720p.BluRay.x264-SiNNERS


Re: Forrest Gump (1994)


Format : Matroska
Format version : Version 2
File size : 6.75 GiB
Duration : 2h 22mn
Overall bit rate : 6 799 Kbps
Encoded date : UTC 2010-02-13 09:18:07
Writing application : mkvmerge v3.0.0 ('Hang up your Hang-Ups') built on Dec 12 2009 15:20:35
Writing library : libebml v0.7.9 + libmatroska v0.8.1

Video
ID : 1
Format : AVC
Format/Info : Advanced Video Codec
Format profile : [email protected]
Format settings, CABAC : Yes
Format settings, ReFrames : 5 frames
Codec ID : V_MPEG4/ISO/AVC
Duration : 2h 22mn
Bit rate : 5 095 Kbps
Width : 1 280 pixels
Height : 544 pixels
Display aspect ratio : 2.35:1
Frame rate : 23.976 fps
Color space : YUV
Chroma subsampling : 4:2:0
Bit depth : 8 bits
Scan type : Progressive
Bits/(Pixel*Frame) : 0.305
Stream size : 4.93 GiB (73%)
Writing library : x264 core 78 r1301 bcba15d
Encoding settings : cabac=1 / ref=5 / deblock=1:0:0 / analyse=0x3:0x113 / me=umh / subme=7 / psy=1 / psy_rd=1.0:0.0 / mixed_ref=1 / me_range=16 / chroma_me=1 / trellis=1 / 8x8dct=1 / cqm=0 / deadzone=21,11 / chroma_qp_offset=-2 / threads=6 / nr=0 / decimate=1 / mbaff=0 / constrained_intra=0 / bframes=3 / b_pyramid=0 / b_adapt=1 / b_bias=0 / direct=1 / wpredb=1 / keyint=250 / keyint_min=25 / scenecut=40 / rc_lookahead=40 / rc=2pass / mbtree=1 / bitrate=5095 / ratetol=1.0 / qcomp=0.60 / qpmin=10 / qpmax=51 / qpstep=4 / cplxblur=20.0 / qblur=0.5 / ip_ratio=1.40 / aq=1:1.00
Language : English

Audio #1
ID : 2
Format : AC-3
Format/Info : Audio Coding 3
Mode extension : CM (complete main)
Codec ID : A_AC3
Duration : 2h 22mn
Bit rate mode : Constant
Bit rate : 192 Kbps
Channel(s) : 2 channels
Channel positions : Front: L R
Sampling rate : 48.0 KHz
Bit depth : 16 bits
Compression mode : Lossy
Delay relative to video : 1s 500ms
Stream size : 195 MiB (3%)
Language : Czech

Audio #2
ID : 3
Format : DTS
Format/Info : Digital Theater Systems
Codec ID : A_DTS
Duration : 2h 22mn
Bit rate mode : Constant
Bit rate : 1 510 Kbps
Channel(s) : 6 channels
Channel positions : Front: L C R, Side: L R, LFE
Sampling rate : 48.0 KHz
Bit depth : 24 bits
Compression mode : Lossy
Stream size : 1.50 GiB (22%)
Language : English

Text #1
ID : 4
Format : UTF-8
Codec ID : S_TEXT/UTF8
Codec ID/Info : UTF-8 Plain Text
Language : English

Text #2
ID : 5
Format : UTF-8
Codec ID : S_TEXT/UTF8
Codec ID/Info : UTF-8 Plain Text
Title : Czech
Language : Czech


Jen registrovaní uživatelé mohou vidět odkazy v code. Přihlaste se nebo zaregistrujte ZDARMA.



Re: Forrest Gump (1994)
Jen registrovaní uživatelé mohou vidět odkazy v code. Přihlaste se nebo zaregistrujte ZDARMA.


Re: Forrest Gump (1994)
Jen registrovaní uživatelé mohou vidět odkazy v code. Přihlaste se nebo zaregistrujte ZDARMA.


Re: Forrest Gump (1994)
Jen registrovaní uživatelé mohou vidět odkazy v code. Přihlaste se nebo zaregistrujte ZDARMA.


Re: Forrest Gump (1994)
Jen registrovaní uživatelé mohou vidět odkazy v code. Přihlaste se nebo zaregistrujte ZDARMA.


Re: Forrest Gump (1994)
Jen registrovaní uživatelé mohou vidět odkazy v code. Přihlaste se nebo zaregistrujte ZDARMA.


14 čer 2013, 04:00
Profil
Warman
Warman
Uživatelský avatar

Registrován: 12 říj 2009, 17:30
Příspěvky: 2451
Příspěvek Re: Forrest Gump (1994)

Forrest Gump (1994)

Forrest. Gump.Bluray. 1080p

Re: Forrest Gump (1994)

Re: Forrest Gump (1994)

Drama / Komedie / Romantický

USA, 1994, 142 min
Režie:
Robert Zemeckis
Předloha:
Winston Groom (kniha)
Scénář:
Eric Roth
Kamera:
Don Burgess
Hudba:
Alan Silvestri
Hrají:
Tom Hanks, Robin Wright, Gary Sinise, Mykelti Williamson, Sally Field, Haley Joel Osment, Peter Dobson, Siobhan Fallon, Hanna Hall, Brett Rice, Kirk Ward, Kurt Russell, Stephen Bridgewater, Michael Jace, Michael McFall, Joe Alaskey, Sam Anderson, Jacqueline Lovell, Mary Ellen Trainor, Vanessa Roth, Bryan Hanna, Jason McGuire, Gerald Ford, Lyndon B. Johnson, John Lennon, John F. Kennedy
Obsah

Zemeckisův film je brilantním shrnutím dosavadních režisérových poznatků o možnostech "comicsového" vyprávění. Formálně i obsahově nejméně konvenční z jeho snímků přesvědčuje komediálními gagy i naléhavě patetickým tónem. Jeho hrdinou je prosťáček Forrest Gump, typický obyčejný muž, který od dětství dělal, co se mu řeklo. Do života si tak odnesl několik ponaučení své pečlivé maminky a osvědčené pravidlo, jež se mu hodí mnohokrát v nejrůznějších situacích: Když se dostaneš do problémů, utíkej. Forrest proutíká školou, jako hráč amerického fotbalu i univerzitou, potom peklem vietnamské války a zoufalstvím nad matčinou smrtí. Vždycky je totiž někdo nebo něco, co po něm skutečně či obrazně "hází kameny". Nakonec však Forrest poznává, že jsou i jiná řešení situací než útěk. Svůj život spojuje s kamarádkou ze školy Jenny, která pro něj zůstane provždycky jedinou láskou, s přítelem z vojny, černochem Bubbou, který dá směr jeho úvahám o lovu krevet a s poručíkem Taylorem, jemuž ve Vietnamu zachrání život. Forrestova životní pouť od 50. do 80. let je koncipovaná jako totálně "bezelstné" vyprávění hrdiny, neschopného obecnějšího hodnocení situace. Forrest jako sportovec i jako válečný hrdina se setkává se slavnými lidmi, které nakonec vždycky někdo zastřelí (J. F. Kennedy, J. Lennon). Také jeho bližní umírají, ale on sám zůstává. Empiricky se dopracovává od impulsivního útěku před životem k úvahám o lidském osudu a o Bohu. Soukromý hrdinův osud zároveň postihuje třicet let poválečných amerických dějin.

Snímek je doslova prošpikován nejrůznějšími kulturními i společenskými odkazy, viděnými ovšem bizarně naivním pohledem hlavního hrdiny, úzce soustředěným na několik hlavních nehodnotících hledisek. Film vedle výjimečného citu pro metaforu a brilantních humorných scén překvapuje patetickým tónem a nezvyklou melancholií. Důležité místo zde mají technicky dokonalé triky ve stylu Allenova Zeliga, dovolující hrdinovi vstoupit do dobových dokumentů a setkat se tak s význačnými osobnostmi.

Re: Forrest Gump (1994)
Jen registrovaní uživatelé mohou vidět odkazy v code. Přihlaste se nebo zaregistrujte ZDARMA.


Formát : Matroska
Format_Version : Version 4 / Version 2
Velikost souboru : 15,6 GiB
Duration/String : 2h 22mn
Celkový BitRate : 15,7 Mbps
Název filmu : Forrest. Gump.Bluray. 1080p
Encoded date : UTC 2014-07-03 19:21:18
Použitý software : mkvmerge v7.0.0 ('Where We Going') 64bit built on Jun 9 2014 15:16:27
Enkódoval : libebml v1.3.0 + libmatroska v1.4.1
DURATION : 02:13:50.656000000
NUMBER_OF_FRAMES : 1255
NUMBER_OF_BYTES : 57594
_STATISTICS_WRITING_APP : mkvmerge v7.0.0 ('Where We Going') 64bit built on Jun 9 2014 15:16:27
_STATISTICS_WRITING_DATE_UTC : 2014-07-03 19:21:18
_STATISTICS_TAGS : BPS DURATION NUMBER_OF_FRAMES NUMBER_OF_BYTES

Video
ID : 1
Formát : AVC
Formát/ : Advanced Video Codec
Format_Profile : [email protected]
Format_Settings_CABAC/String : Ano
Format_Settings_RefFrames/String : 2 frame
CodecID : V_MPEG4/ISO/AVC
Duration/String : 2h 22mn
BitRate_Nominal/String : 10,9 Mbps
BitRate_Maximum/String : 35,0 Mbps
Šířka : 1 920pixely
Výška : 1 080pixely
Poměr stran : 16:9
Frame rate : 23,976 fps
ColorSpace : YUV
ChromaSubsampling : 4:2:0
BitDepth/String : 8 bits
ScanType/String : Progressive
Bits/(Pixel*Frame) : 0.220
Enkódoval : x264 core 138 r2358 9e941d1
Nastavení enkoderu : cabac=1 / ref=1 / deblock=1:0:0 / analyse=0x3:0x3 / me=dia / subme=1 / psy=1 / psy_rd=1.00:0.00 / mixed_ref=0 / me_range=16 / chroma_me=1 / trellis=0 / 8x8dct=1 / cqm=0 / deadzone=21,11 / fast_pskip=1 / chroma_qp_offset=0 / threads=6 / lookahead_threads=1 / sliced_threads=0 / slices=4 / nr=0 / decimate=1 / interlaced=0 / bluray_compat=1 / constrained_intra=0 / bframes=3 / b_pyramid=0 / b_adapt=1 / b_bias=0 / direct=1 / weightb=1 / open_gop=0 / weightp=1 / keyint=24 / keyint_min=1 / scenecut=40 / intra_refresh=0 / rc_lookahead=0 / rc=2pass / mbtree=0 / bitrate=10937 / ratetol=1.0 / qcomp=0.60 / qpmin=0 / qpmax=69 / qpstep=4 / cplxblur=20.0 / qblur=0.5 / vbv_maxrate=35000 / vbv_bufsize=30000 / nal_hrd=vbr / ip_ratio=1.10 / pb_ratio=1.10 / aq=1:1.00
Jazyk : English
Default : Ano
Forced : Ne

Audio #1
ID : 2
Formát : AC-3
Formát/ : Audio Coding 3
Format_Settings_ModeExtension : CM (complete main)
Format_Settings_Endianness : Big
CodecID : A_AC3
Duration/String : 2h 22mn
Bit rate : 640 Kbps
Kanál(y) : 2 kanály
Channel positions : Front: L R
Sampling rate : 48,0 KHz
BitDepth/String : 16 bits
Video delay : 1s 550ms
StreamSize/String : 651 MiB (4%)
Jazyk : Czech
Default : Ano
Forced : Ano

Audio #2
ID : 3
Formát : DTS
Formát/ : Digital Theater Systems
Format_Profile : MA / Core
Format_Settings_Mode : 16
Format_Settings_Endianness : Big
CodecID : A_DTS
Duration/String : 2h 22mn
Bit rate : Neznámý / 1 509 Kbps
Kanál(y) : 6 kanály
Channel positions : Front: L C R, Side: L R, LFE
Sampling rate : 48,0 KHz
BitDepth/String : 24 bits
Compression_Mode/String : / Lossy
Jazyk : English
Default : Ne
Forced : Ne

Text #1
ID : 4
Formát : PGS
MuxingMode : zlib
CodecID : S_HDMV/PGS
/ : The same subtitle format used on BDs/HD-DVDs
Jazyk : English
Default : Ne
Forced : Ne

Text #2
ID : 5
Formát : UTF-8
CodecID : S_TEXT/UTF8
/ : UTF-8 Plain Text
Jazyk : Czech
Default : Ano
Forced : Ne

Menu
00:00:00.000 : :CHAPTER01
00:05:00.000 : :CHAPTER02
00:10:00.000 : :CHAPTER03
00:15:00.000 : :CHAPTER04
00:20:00.000 : :CHAPTER05
00:25:00.000 : :CHAPTER06
00:30:00.000 : :CHAPTER07
00:35:00.000 : :CHAPTER08
00:40:00.000 : :CHAPTER09
00:45:00.000 : :CHAPTER10
00:50:00.000 : :CHAPTER11
00:55:00.000 : :CHAPTER12
01:00:00.000 : :CHAPTER13
01:05:00.000 : :CHAPTER14
01:10:00.000 : :CHAPTER15
01:15:00.000 : :CHAPTER16
01:20:00.000 : :CHAPTER17
01:25:00.000 : :CHAPTER18
01:30:00.000 : :CHAPTER19
01:35:00.000 : :CHAPTER20
01:50:00.000 : :CHAPTER21
01:55:00.000 : :CHAPTER22
02:00:00.000 : :CHAPTER23
02:05:00.000 : :CHAPTER24
02:10:00.000 : :CHAPTER25
02:15:00.000 : :CHAPTER26
02:20:00.000 : :CHAPTER27

Re: Forrest Gump (1994)
Re: Forrest Gump (1994)

Jen registrovaní uživatelé mohou vidět odkazy v code. Přihlaste se nebo zaregistrujte ZDARMA.


Re: Forrest Gump (1994)

Jen registrovaní uživatelé mohou vidět odkazy v code. Přihlaste se nebo zaregistrujte ZDARMA.



VLOŽEN ZÁZNAM NA OPRAVU DAT 5 %

LINKY JSOU KOMBINOVATELNÉ


Re: Forrest Gump (1994)

Jen registrovaní uživatelé mohou vidět odkazy v code. Přihlaste se nebo zaregistrujte ZDARMA.


04 črc 2014, 07:43
Profil
Warman
Warman
Uživatelský avatar

Registrován: 25 lis 2008, 11:02
Příspěvky: 6595
Příspěvek Re: Forrest Gump (1994)

Forrest Gump (1994)

Jazyk : CZ 2.0 AC3 / EN 5.1 DTS
Titulky : EN


Forrest.Gump.1994.1080p.BluRay.x264.AC3.CZ.DTS.EN
Re: Forrest Gump (1994)
CSFD
Jen registrovaní uživatelé mohou vidět odkazy v code. Přihlaste se nebo zaregistrujte ZDARMA.

INFO
Jen registrovaní uživatelé mohou vidět odkazy v code. Přihlaste se nebo zaregistrujte ZDARMA.

MediaInfo
Jen registrovaní uživatelé mohou vidět odkazy v code. Přihlaste se nebo zaregistrujte ZDARMA.

Jen registrovaní uživatelé mohou vidět odkazy v code. Přihlaste se nebo zaregistrujte ZDARMA.

Fastshare
Jen registrovaní uživatelé mohou vidět odkazy v code. Přihlaste se nebo zaregistrujte ZDARMA.

No Pass


13 pro 2015, 09:51
Profil
Private 1 st class
Private 1 st class

Registrován: 28 srp 2008, 10:32
Příspěvky: 23
Příspěvek Re: Forrest Gump (1994)

posledni odkaz nefunguje, nelze stahnout http://fastshare.cz/6899029/forr.part10.rar


30 led 2017, 20:20
Profil
Colonel 5 th class
Colonel 5 th class
Uživatelský avatar

Registrován: 30 pro 2010, 21:16
Příspěvky: 658
Příspěvek Forrest Gump / Forrest Gump (1994)

Jen registrovaní uživatelé mohou vidět odkazy v code. Přihlaste se nebo zaregistrujte ZDARMA.


Forrest Gump / Forrest Gump (1994)

Jen registrovaní uživatelé mohou vidět odkazy v code. Přihlaste se nebo zaregistrujte ZDARMA.


Jen registrovaní uživatelé mohou vidět odkazy v code. Přihlaste se nebo zaregistrujte ZDARMA.


Jen registrovaní uživatelé mohou vidět odkazy v code. Přihlaste se nebo zaregistrujte ZDARMA.


14 lis 2017, 15:33
Profil
Zobrazit příspěvky za předchozí:  Seřadit podle  
Odeslat nové téma Odpovědět na téma  [ Příspěvků: 15 ] 

Všechny časy jsou v UTC + 1 hodina


Nemůžete zakládat nová témata v tomto fóru
Nemůžete odpovídat v tomto fóru
Nemůžete upravovat své příspěvky v tomto fóru
Nemůžete mazat své příspěvky v tomto fóru
Nemůžete přikládat soubory v tomto fóru









StahovaniZaSMS Pizza Modena MP3 free download