fastshare
Bumblebee (2018)
Vypnout statistiky
KATEGORIEPOSLEDNÍ PŘÍSPĚVKYPOSLEDNÍ OZNÁMENÍSTATISTIKY UŽIVATELE
Nick: Anonymous
Příspěvků: 3352
Hodnost: Warman
Varování: 0
---
Právě je 19 črc 2019, 19:50





Všechny časy jsou v UTC + 1 hodina


Pravidla fóra







Odeslat nové téma Odpovědět na téma  [ Příspěvků: 5 ] 
 Bumblebee (2018) 
Autor Zpráva
Colonel 2 nd class
Colonel 2 nd class

Registrován: 15 črc 2008, 21:29
Příspěvky: 429
Příspěvek Bumblebee (2018)

Bumblebee (2018) [Blu-ray RIP]

Akční / Dobrodružný / Sci-Fi
Charlie Watsonová (Hailee Steinfeld) slaví osmnáctiny, ale moc důvodů k radosti nemá. Na čele jí vyrazil čerstvý megabeďar a naděje, že od rodiny dostane vysněné auto, se rozplyne ve chvíli, když rozbalí mimořádně trapné dárky. Až majitel bazaru a vrakoviště, u kterého brigádničí, se nad ní smiluje a daruje jí žlutý Volkswagen Brouk, jenž ovšem spadá spíš do kategorie dar nedar. Jen ten největší optimista by totiž vsadil na to, že tahle kraksna bude ještě někdy provozuschopná. Charlie ho dokáže rozchodit aspoň natolik, že s ním doskáče domů do garáže, kde se ho pokusí opravit. Když se ale poprvé zespodu podívá na podvozek, zírají na ni dvě veliké modré oči a Charlie okamžitě dojde, že tohle nebude obyčejné auto.

INFO:
Jen registrovaní uživatelé mohou vidět odkazy v code. Přihlaste se nebo zaregistrujte ZDARMA.


Bumblebee (2018)
________________________________________________________________________________

8764 MB

Video: 1920x1080 - AVC/H264 - 23.976 fps - 9 Mbps
Audio: CZ dabing - AC3 5.1 - 640 Kbps
Audio: ENG - AC3 5.1 - 640 Kbps
Titulky: forced CZ + CZ + ENG
Čas: 1:53:53

MediaInfo
General
Format : Matroska
Format version : Version 4 / Version 2
File size : 8.16 GiB
Duration : 1 h 53 min
Overall bit rate : 10.3 Mb/s
Writing application : Lavf57.83.100
Writing library : Lavf57.83.100
ErrorDetectionType : Per level 1

Video
ID : 1
Format : AVC
Format/Info : Advanced Video Codec
Format profile : [email protected]
Format settings : CABAC / 4 Ref Frames
Format settings, CABAC : Yes
Format settings, RefFrames : 4 frames
Codec ID : V_MPEG4/ISO/AVC
Duration : 1 h 53 min
Bit rate : 8 978 kb/s
Width : 1 920 pixels
Height : 1 080 pixels
Display aspect ratio : 16:9
Frame rate mode : Constant
Frame rate : 23.976 (24000/1001) FPS
Color space : YUV
Chroma subsampling : 4:2:0
Bit depth : 8 bits
Scan type : Progressive
Bits/(Pixel*Frame) : 0.181
Stream size : 6.98 GiB (86%)
Writing library : x264 core 157 r2935 545de2f
Encoding settings : cabac=1 / ref=4 / deblock=1:-3:-3 / analyse=0x3:0x113 / me=umh / subme=8 / psy=1 / psy_rd=1.00:0.00 / mixed_ref=1 / me_range=16 / chroma_me=1 / trellis=1 / 8x8dct=1 / cqm=0 / deadzone=21,11 / fast_pskip=1 / chroma_qp_offset=-2 / threads=30 / lookahead_threads=5 / sliced_threads=0 / nr=0 / decimate=1 / interlaced=0 / bluray_compat=0 / constrained_intra=0 / bframes=3 / b_pyramid=2 / b_adapt=1 / b_bias=0 / direct=3 / weightb=1 / open_gop=0 / weightp=2 / keyint=250 / keyint_min=23 / scenecut=40 / intra_refresh=0 / rc_lookahead=50 / rc=2pass / mbtree=1 / bitrate=8978 / ratetol=1.0 / qcomp=0.60 / qpmin=0 / qpmax=69 / qpstep=4 / cplxblur=20.0 / qblur=0.5 / ip_ratio=1.40 / aq=1:1.00
Default : Yes
Forced : No

Audio #1
ID : 2
Format : AC-3
Format/Info : Audio Coding 3
Codec ID : A_AC3
Duration : 1 h 53 min
Bit rate mode : Constant
Bit rate : 640 kb/s
Channel(s) : 6 channels
Channel positions : Front: L C R, Side: L R, LFE
Sampling rate : 48.0 kHz
Frame rate : 31.250 FPS (1536 SPF)
Bit depth : 16 bits
Compression mode : Lossy
Stream size : 521 MiB (6%)
Language : Czech
Service kind : Complete Main
Default : Yes
Forced : No

Audio #2
ID : 3
Format : AC-3
Format/Info : Audio Coding 3
Codec ID : A_AC3
Duration : 1 h 53 min
Bit rate mode : Constant
Bit rate : 640 kb/s
Channel(s) : 6 channels
Channel positions : Front: L C R, Side: L R, LFE
Sampling rate : 48.0 kHz
Frame rate : 31.250 FPS (1536 SPF)
Bit depth : 16 bits
Compression mode : Lossy
Stream size : 521 MiB (6%)
Language : English
Service kind : Complete Main
Default : No
Forced : No

Text #1
ID : 4
Format : UTF-8
Codec ID : S_TEXT/UTF8
Codec ID/Info : UTF-8 Plain Text
Duration : 1 h 47 min
Title : forced
Writing library : Lavc57.107.100 srt
Language : Czech
Default : Yes
Forced : No

Text #2
ID : 5
Format : UTF-8
Codec ID : S_TEXT/UTF8
Codec ID/Info : UTF-8 Plain Text
Duration : 1 h 49 min
Writing library : Lavc57.107.100 srt
Language : Czech
Default : No
Forced : No

Text #3
ID : 6
Format : UTF-8
Codec ID : S_TEXT/UTF8
Codec ID/Info : UTF-8 Plain Text
Duration : 1 h 49 min
Writing library : Lavc57.107.100 srt
Language : English
Default : No
Forced : No

FullHD - AVC
Jen registrovaní uživatelé mohou vidět odkazy v code. Přihlaste se nebo zaregistrujte ZDARMA.


5287 MB

Video: 1920x1080 - HEVC/H265 - 23.976 fps - 5 Mbps
Audio: CZ dabing - AC3 5.1 - 640 Kbps
Audio: ENG - AC3 5.1 - 640 Kbps
Titulky: forced CZ + CZ + ENG
Čas: 1:53:53

MediaInfo
General
Format : Matroska
Format version : Version 4 / Version 2
File size : 4.92 GiB
Duration : 1 h 53 min
Overall bit rate : 6 189 kb/s
Writing application : Lavf57.83.100
Writing library : Lavf57.83.100
ErrorDetectionType : Per level 1

Video
ID : 1
Format : HEVC
Format/Info : High Efficiency Video Coding
Format profile : [email protected]@Main
Codec ID : V_MPEGH/ISO/HEVC
Duration : 1 h 53 min
Bit rate : 4 786 kb/s
Width : 1 920 pixels
Height : 1 080 pixels
Display aspect ratio : 16:9
Frame rate mode : Variable
Original frame rate : 23.976 FPS
Color space : YUV
Chroma subsampling : 4:2:0
Bit depth : 8 bits
Stream size : 3.81 GiB (77%)
Writing library : x265 3.0_Au+10-74a8672ea4f7:[Windows][GCC 8.2.1][64 bit] 8bit+10bit
Encoding settings : cpuid=1111039 / frame-threads=3 / numa-pools=12 / wpp / no-pmode / no-pme / no-psnr / no-ssim / log-level=2 / input-csp=1 / input-res=1920x1080 / interlace=0 / total-frames=0 / level-idc=0 / high-tier=1 / uhd-bd=0 / ref=4 / no-allow-non-conformance / no-repeat-headers / annexb / no-aud / no-hrd / info / hash=0 / no-temporal-layers / open-gop / min-keyint=120 / keyint=240 / gop-lookahead=0 / bframes=4 / b-adapt=2 / b-pyramid / bframe-bias=0 / rc-lookahead=72 / lookahead-slices=6 / scenecut=40 / radl=0 / no-splice / no-intra-refresh / ctu=64 / min-cu-size=8 / no-rect / no-amp / max-tu-size=32 / tu-inter-depth=1 / tu-intra-depth=1 / limit-tu=0 / rdoq-level=2 / dynamic-rd=0.00 / no-ssim-rd / signhide / no-tskip / nr-intra=0 / nr-inter=0 / no-constrained-intra / strong-intra-smoothing / max-merge=2 / limit-refs=0 / limit-modes / me=1 / subme=2 / merange=57 / temporal-mvp / weightp / no-weightb / no-analyze-src-pics / deblock=-1:-1 / sao / no-sao-non-deblock / rd=3 / early-skip / no-rskip / no-fast-intra / no-tskip-fast / no-cu-lossless / no-b-intra / no-splitrd-skip / rdpenalty=0 / psy-rd=0.25 / psy-rdoq=1.00 / no-rd-refine / no-lossless / cbqpoffs=0 / crqpoffs=0 / rc=abr / bitrate=5000 / qcomp=0.60 / qpstep=4 / stats-write=0 / stats-read=0 / ipratio=2.00 / pbratio=1.30 / aq-mode=2 / aq-strength=1.00 / cutree / zone-count=0 / no-strict-cbr / qg-size=32 / no-rc-grain / qpmax=69 / qpmin=0 / no-const-vbv / sar=1 / overscan=0 / videoformat=5 / range=0 / colorprim=2 / transfer=2 / colormatrix=2 / chromaloc=0 / display-window=0 / max-cll=0,0 / min-luma=0 / max-luma=255 / log2-max-poc-lsb=8 / vui-timing-info / vui-hrd-info / slices=1 / no-opt-qp-pps / no-opt-ref-list-length-pps / no-multi-pass-opt-rps / scenecut-bias=0.05 / no-opt-cu-delta-qp / no-aq-motion / no-hdr / no-hdr-opt / no-dhdr10-opt / no-idr-recovery-sei / analysis-reuse-level=5 / scale-factor=0 / refine-intra=0 / refine-inter=0 / refine-mv=0 / refine-ctu-distortion=0 / no-limit-sao / ctu-info=0 / no-lowpass-dct / refine-analysis-type=0 / copy-pic=1 / max-ausize-factor=1.0 / no-dynamic-refine / no-single-sei / no-hevc-aq / no-svt / qp-adaptation-range=1.00
Default : Yes
Forced : No
Color range : Limited

Audio #1
ID : 2
Format : AC-3
Format/Info : Audio Coding 3
Codec ID : A_AC3
Duration : 1 h 53 min
Bit rate mode : Constant
Bit rate : 640 kb/s
Channel(s) : 6 channels
Channel positions : Front: L C R, Side: L R, LFE
Sampling rate : 48.0 kHz
Frame rate : 31.250 FPS (1536 SPF)
Bit depth : 16 bits
Compression mode : Lossy
Stream size : 521 MiB (10%)
Language : Czech
Service kind : Complete Main
Default : Yes
Forced : No

Audio #2
ID : 3
Format : AC-3
Format/Info : Audio Coding 3
Codec ID : A_AC3
Duration : 1 h 53 min
Bit rate mode : Constant
Bit rate : 640 kb/s
Channel(s) : 6 channels
Channel positions : Front: L C R, Side: L R, LFE
Sampling rate : 48.0 kHz
Frame rate : 31.250 FPS (1536 SPF)
Bit depth : 16 bits
Compression mode : Lossy
Stream size : 521 MiB (10%)
Language : English
Service kind : Complete Main
Default : No
Forced : No

Text #1
ID : 4
Format : UTF-8
Codec ID : S_TEXT/UTF8
Codec ID/Info : UTF-8 Plain Text
Duration : 1 h 47 min
Title : forced
Writing library : Lavc57.107.100 srt
Language : Czech
Default : Yes
Forced : No

Text #2
ID : 5
Format : UTF-8
Codec ID : S_TEXT/UTF8
Codec ID/Info : UTF-8 Plain Text
Duration : 1 h 49 min
Writing library : Lavc57.107.100 srt
Language : Czech
Default : No
Forced : No

Text #3
ID : 6
Format : UTF-8
Codec ID : S_TEXT/UTF8
Codec ID/Info : UTF-8 Plain Text
Duration : 1 h 49 min
Writing library : Lavc57.107.100 srt
Language : English
Default : No
Forced : No

FullHD - HEVC
Jen registrovaní uživatelé mohou vidět odkazy v code. Přihlaste se nebo zaregistrujte ZDARMA.

________________________________________________________________________________


24 bře 2019, 07:23
Profil
General
General

Registrován: 09 bře 2009, 18:27
Příspěvky: 870
Příspěvek Re: Bumblebee (2018)

Bumblebee.2018.1080p.BluRay.x264.DTS-HD.5.1.CZ.5.1.ENG




Re: Bumblebee (2018)

Cover:

Re: Bumblebee (2018)


Info:

Jazyk: 5.1 CZ, 5.1 ENG
Titulky: CZ, ENG
Kvalita zvuku: MediaInfo
Kvalita videa: MediaInfo

Csfd:
Jen registrovaní uživatelé mohou vidět odkazy v code. Přihlaste se nebo zaregistrujte ZDARMA.

Info:
Jen registrovaní uživatelé mohou vidět odkazy v code. Přihlaste se nebo zaregistrujte ZDARMA.


Download:
Jen registrovaní uživatelé mohou vidět odkazy v code. Přihlaste se nebo zaregistrujte ZDARMA.



Bumblebee.2018.1080p.BluRay.x264.DD5.1.CZ.ENG-MTeam.mkv

Kvalita:
Jen registrovaní uživatelé mohou vidět odkazy v code. Přihlaste se nebo zaregistrujte ZDARMA.


Download:
Jen registrovaní uživatelé mohou vidět odkazy v code. Přihlaste se nebo zaregistrujte ZDARMA.


Naposledy upravil freesby89 dne 26 bře 2019, 21:13, celkově upraveno 1

25 bře 2019, 17:22
Profil
General
General

Registrován: 09 bře 2009, 18:27
Příspěvky: 870
Příspěvek Re: Bumblebee (2018)

Bumblebee.2018.2160p.UHD.BluRay.X265.10bit.HDR.TrueHD.7.1.Atmos-TERMiNAL



Re: Bumblebee (2018)


Cover:

Re: Bumblebee (2018)


Info:

Jazyk: 5.1 CZ, 5.1 ENG
Titulky: CZ, ENG
Kvalita zvuku: MediaInfo
Kvalita videa: MediaInfo

Csfd:
Jen registrovaní uživatelé mohou vidět odkazy v code. Přihlaste se nebo zaregistrujte ZDARMA.

Info:
Jen registrovaní uživatelé mohou vidět odkazy v code. Přihlaste se nebo zaregistrujte ZDARMA.


Download:
Jen registrovaní uživatelé mohou vidět odkazy v code. Přihlaste se nebo zaregistrujte ZDARMA.


RAR:
Jen registrovaní uživatelé mohou vidět odkazy v code. Přihlaste se nebo zaregistrujte ZDARMA.


26 bře 2019, 17:10
Profil
Colonel 2 nd class
Colonel 2 nd class

Registrován: 30 pro 2007, 17:16
Příspěvky: 431
Příspěvek Re: Bumblebee (2018)

Bumblebee (2018)

Video/Zdroj: BluRay 1080p
Audio: CZ AC-3 5.1ch, EN AC-3 5.1ch
Titulky: CZ, SK


Re: Bumblebee (2018)

CSFD / IMDB
Jen registrovaní uživatelé mohou vidět odkazy v code. Přihlaste se nebo zaregistrujte ZDARMA.


INFO
Citace:
Format : Matroska
Format version : Version 4 / Version 2
File size : 8.17 GiB
Duration : 1 h 53 min
Overall bit rate : 10.3 Mb/s

Video
Format : AVC
Format profile : [email protected]
Duration : 1 h 53 min
Bit rate : 8 978 kb/s
Width : 1 920 pixels
Height : 1 080 pixels
Display aspect ratio : 16:9
Frame rate mode : Constant
Frame rate : 23.976 (24000/1001) FPS
Color space : YUV
Chroma subsampling : 4:2:0
Bit depth : 8 bits
Scan type : Progressive
Bits/(Pixel*Frame) : 0.181
Stream size : 7.14 GiB (87%)

Audio #1
Format : AC-3
Duration : 1 h 53 min
Bit rate mode : Constant
Bit rate : 640 kb/s
Channel(s) : 6 channels
Channel positions : Front: L C R, Side: L R, LFE
Sampling rate : 48.0 kHz
Frame rate : 31.250 FPS (1536 SPF)
Bit depth : 16 bits
Compression mode : Lossy
Stream size : 521 MiB (6%)
Service kind : Complete Main
Default : Yes
Forced : No

Audio #2
Format : AC-3
Duration : 1 h 53 min
Bit rate mode : Constant
Bit rate : 640 kb/s
Channel(s) : 6 channels
Channel positions : Front: L C R, Side: L R, LFE
Sampling rate : 48.0 kHz
Frame rate : 31.250 FPS (1536 SPF)
Bit depth : 16 bits
Compression mode : Lossy
Stream size : 521 MiB (6%)
Language : English
Default : No
Forced : No

Text #1
Format : PGS
Language : Czech
Default : Yes
Forced : No

Text #2
Format : PGS
Language : Slovak
Default : No
Forced : No


FASTSHARE

Jen registrovaní uživatelé mohou vidět odkazy v code. Přihlaste se nebo zaregistrujte ZDARMA.


Jen registrovaní uživatelé mohou vidět odkazy v code. Přihlaste se nebo zaregistrujte ZDARMA.


Bez hesla. Balené bez kompresie. Pridaný záznam pre opravu dát 5%.
------------------------------------------------------------------------------------------------------------------------------------------------------------------------------------

Video/Zdroj: BluRay 2160p
Audio: CZ AC-3 5.1ch, EN TrueHD + Atmos 7.1ch
Titulky: CZ, CZ forced, EN


INFO
Citace:
Format : Matroska
Format version : Version 4 / Version 2
File size : 21.3 GiB
Duration : 1 h 53 min
Overall bit rate mode : Variable
Overall bit rate : 26.8 Mb/s

Video
Format : HEVC
Format profile : Main [email protected]@High
Duration : 1 h 53 min
Bit rate : 21.3 Mb/s
Width : 3 840 pixels
Height : 2 160 pixels
Display aspect ratio : 16:9
Frame rate mode : Constant
Frame rate : 23.976 (24000/1001) FPS
Color space : YUV
Chroma subsampling : 4:2:0 (Type 2)
Bit depth : 10 bits
Bits/(Pixel*Frame) : 0.107
Stream size : 17.0 GiB (80%)

Audio #1
Format : AC-3
Duration : 1 h 53 min
Bit rate mode : Constant
Bit rate : 640 kb/s
Channel(s) : 6 channels
Channel positions : Front: L C R, Side: L R, LFE
Sampling rate : 48.0 kHz
Frame rate : 31.250 FPS (1536 SPF)
Bit depth : 16 bits
Compression mode : Lossy
Stream size : 521 MiB (2%)
Language : Czech
Default : Yes
Forced : Yes

Audio #2
Format : TrueHD
Format profile : TrueHD+Atmos / TrueHD
Duration : 1 h 53 min
Bit rate mode : Variable
Bit rate : 4 736 kb/s
Maximum bit rate : 7 761 kb/s
Channel(s) : Object Based / 8 channels
Channel positions : Object Based / Front: L C R, Side: L R, Back: L R, LFE
Sampling rate : / 48.0 kHz
Frame rate : 1 200.000 FPS (40 SPF)
Compression mode : Lossless
Stream size : 3.77 GiB (18%)
Language : English
Default : No
Forced : No

Text #1
Format : UTF-8
Language : Czech
Default : No
Forced : No

Text #2
Format : PGS
Language : Czech
Default : Yes
Forced : Yes

Text #3
Format : PGS
Language : Czech
Default : No
Forced : No

Text #4
Format : PGS
Language : English
Default : No
Forced : No

Text #5
Format : PGS
Language : English
Default : No
Forced : No


Fastshare
Jen registrovaní uživatelé mohou vidět odkazy v code. Přihlaste se nebo zaregistrujte ZDARMA.


Bez hesla. Balené bez kompresie. Pridaný záznam pre opravu dát 5%.


26 bře 2019, 17:56
Profil
Lieutenant
Lieutenant

Registrován: 22 říj 2018, 15:54
Příspěvky: 202
Příspěvek Re: Bumblebee (2018)

Re: Bumblebee (2018)
Bumblebee.2018.COMPLETE.BLURAY-VALiS
NÁZEV: Bumblebee
PUBLIKOVÁNO: 2018
CATEGORY: Akční / Dobrodružný / Sci-Fi
VELIKOST: 45,5 GB
ČAS: 1h 54min
VIDEO: AVC, 35.7 Mbps, 1920x1080, 23.976 FPS, 16:9
AUDIO 1: English Dolby Atmos, AC3, 640 kbps, VBR, 6 channel, 48.0 KHz
AUDIO 2: Czech Dolby Digital 5.1, AC3, 640 kbps, CBR, 6 channel, 48.0 KHz
AUDIO 3: German Dolby Digital 5.1, AC3, 640 kbps, CBR, 6 channel, 48.0 KHz
AUDIO 4: Japanese Dolby Digital 5.1, AC3, 640 kbps, CBR, 6 channel, 48.0 KHz
AUDIO 5: Hungarian Dolby Digital 5.1, AC3, 640 kbps, CBR, 6 channel, 48.0 KHz
AUDIO 6: Polish Dolby Digital 5.1, AC3, 640 kbps, CBR, 6 channel, 48.0 KHz
AUDIO 7: Russian Dolby Digital 5.1, AC3, 640 kbps, CBR, 6 channel, 48.0 KHz
AUDIO 8: Thai Dolby Digital 5.1, AC3, 640 kbps, CBR, 6 channel, 48.0 KHz
TITULKY: English, Arabic, Malay, Cantonese, Czech, German, Greek, Hindi, Icelandic, Japanese, Korean, Hungarian, Traditional Chinese, Polish, Portuguese, Russian, Romanian, Simplified Chinese, Slovak, Thai, Turkish
REžIE: Travis Knight
SCÉNÁR: Christina Hodson
HRAJÍ: Hailee Steinfeld, Jorge Lendeborg Jr., John Cena, Jason Drucker, Pamela Adlon, Stephen Schneider, Ricardo Hoyos, John Ortiz, Glynn Turman
OBSAH: Charlie Watsonová (Hailee Steinfeld) slaví osmnáctiny, ale moc důvodů k radosti nemá. Na čele jí vyrazil čerstvý megabeďar a naděje, že od rodiny dostane vysněné auto, se rozplyne ve chvíli, když rozbalí mimořádně trapné dárky. Až majitel bazaru a vrakoviště, u kterého brigádničí, se nad ní smiluje a daruje jí žlutý Volkswagen Brouk, jenž ovšem spadá spíš do kategorie dar nedar. Jen ten největší optimista by totiž vsadil na to, že tahle kraksna bude ještě někdy provozuschopná. Charlie ho dokáže rozchodit aspoň natolik, že s ním doskáče domů do garáže, kde se ho pokusí opravit. Když se ale poprvé zespodu podívá na podvozek, zírají na ni dvě veliké modré oči a Charlie okamžitě dojde, že tohle nebude obyčejné auto.
OBRÁZKY:
Re: Bumblebee (2018) - Re: Bumblebee (2018) - Re: Bumblebee (2018)
Jen registrovaní uživatelé mohou vidět odkazy v code. Přihlaste se nebo zaregistrujte ZDARMA.


23 dub 2019, 18:08
Profil
Zobrazit příspěvky za předchozí:  Seřadit podle  
Odeslat nové téma Odpovědět na téma  [ Příspěvků: 5 ] 

Všechny časy jsou v UTC + 1 hodina


Nemůžete zakládat nová témata v tomto fóru
Nemůžete odpovídat v tomto fóru
Nemůžete upravovat své příspěvky v tomto fóru
Nemůžete mazat své příspěvky v tomto fóru
Nemůžete přikládat soubory v tomto fóru









StahovaniZaSMS Pizza Modena MP3 free download