fastshare
Sidney Hall / The Vanishing of Sidney Hall (2017)
Vypnout statistiky
KATEGORIEPOSLEDNÍ PŘÍSPĚVKYPOSLEDNÍ OZNÁMENÍSTATISTIKY UŽIVATELE
Nick: Anonymous
Příspěvků: 3359
Hodnost: Warman
Varování: 0
---
Právě je 13 pro 2018, 23:13





Všechny časy jsou v UTC + 1 hodina


Pravidla fóra







Odeslat nové téma Odpovědět na téma  [ Příspěvků: 2 ] 
 Sidney Hall / The Vanishing of Sidney Hall (2017) 
Autor Zpráva
Warman
Warman

Registrován: 26 kvě 2015, 00:50
Příspěvky: 1360
Příspěvek Sidney Hall / The Vanishing of Sidney Hall (2017)

Sidney Hall / The Vanishing of Sidney Hall (2017)

CSFD:

Jen registrovaní uživatelé mohou vidět odkazy v code. Přihlaste se nebo zaregistrujte ZDARMA.


Sidney Hall / The Vanishing of Sidney Hall (2017)

The.Vanishing.of.Sidney.Hall.2017.720p.BluRay.x264.DD5.1.CZ
The.Vanishing.of.Sidney.Hall.2017.1080p.BluRay.x264.DD5.1.CZ


The.Vanishing.of.Sidney.Hall.2017.720p.BluRay.x264.DD5.1.CZ
Jazyk: Czech 5.1 384 Kbps , English 5.1 384 Kbps
Subtitles: Czech forced , Czech , English

iNFO

Jen registrovaní uživatelé mohou vidět odkazy v code. Přihlaste se nebo zaregistrujte ZDARMA.


Sidney Hall / The Vanishing of Sidney Hall (2017)
Jen registrovaní uživatelé mohou vidět odkazy v code. Přihlaste se nebo zaregistrujte ZDARMA.

Jen registrovaní uživatelé mohou vidět odkazy v code. Přihlaste se nebo zaregistrujte ZDARMA.

Přidán záznam na opravu dat 3%.

The.Vanishing.of.Sidney.Hall.2017.1080p.BluRay.x264.DD5.1.CZ
Jazyk: Czech 5.1 384 Kbps , English 5.1 384 Kbps
Subtitles: Czech forced , Czech , English

iNFO

Jen registrovaní uživatelé mohou vidět odkazy v code. Přihlaste se nebo zaregistrujte ZDARMA.


Sidney Hall / The Vanishing of Sidney Hall (2017)
Jen registrovaní uživatelé mohou vidět odkazy v code. Přihlaste se nebo zaregistrujte ZDARMA.

Jen registrovaní uživatelé mohou vidět odkazy v code. Přihlaste se nebo zaregistrujte ZDARMA.

Přidán záznam na opravu dat 3%.


Naposledy upravil browing3006 dne 20 čer 2018, 18:13, celkově upraveno 1

20 čer 2018, 05:23
Profil
Lieutenant
Lieutenant

Registrován: 15 črc 2008, 21:29
Příspěvky: 224
Příspěvek Re: Sidney Hall / The Vanishing of Sidney Hall (2017)

Sidney Hall / The Vanishing of Sidney Hall (2017) [BR-RIP]

Drama
Nehledě na mladý věk projevuje Sidney Hall (Logan Lerman) zralý talent pro psaní. Jeho školní eseje ukazují hrozby, které některé odrazují, avšak jeden učitel rozpozná talent a vyzývá Sidneyho, aby se dal na spisovatelskou dráhu. Úspěchy s prvním románem učiní ze Sidneyho celebritu, ačkoli jeho antiutopie z předměstí vyvolává tragické reakce u některých mladých čtenářů a zavleče jeho jméno do skandálu. Současně jej pronásledují temná tajemství z minulosti, která komplikují další tvůrčí rozvoj a zároveň maří jeho šance na rozvinutí milostného vztahu k bývalé lásce z dětství. Když zklamaný spisovatel téměř zmizí z veřejného života, záhadný detektiv se snaží najít odpověď na jeho tajemství.

INFO:
Jen registrovaní uživatelé mohou vidět odkazy v code. Přihlaste se nebo zaregistrujte ZDARMA.


Re: Sidney Hall / The Vanishing of Sidney Hall (2017)
________________________________________________________________________________

9741 MB

Video: 1920x808 - AVC/H264 - 23.976 fps - 8.8 Mbps
Audio: CZ dabing - AC3 5.1 - 384 Kbps
Audio: ENG - DTS 5.1 - 1.5 Mbps
Titulky: forced CZ + ENG
Čas: 2:00:32

MediaInfo
General
Format : Matroska
Format version : Version 4 / Version 2
File size : 9.07 GiB
Duration : 2 h 0 min
Overall bit rate : 10.8 Mb/s
Writing application : Lavf57.83.100
Writing library : Lavf57.83.100
ErrorDetectionType : Per level 1

Video
ID : 1
Format : AVC
Format/Info : Advanced Video Codec
Format profile : [email protected]
Format settings : CABAC / 5 Ref Frames
Format settings, CABAC : Yes
Format settings, RefFrames : 5 frames
Codec ID : V_MPEG4/ISO/AVC
Duration : 2 h 0 min
Bit rate : 8 877 kb/s
Width : 1 920 pixels
Height : 808 pixels
Display aspect ratio : 2.40:1
Frame rate mode : Constant
Frame rate : 23.976 (24000/1001) FPS
Color space : YUV
Chroma subsampling : 4:2:0
Bit depth : 8 bits
Scan type : Progressive
Bits/(Pixel*Frame) : 0.239
Stream size : 7.30 GiB (80%)
Writing library : x264 core 155 r2901 7d0ff22
Encoding settings : cabac=1 / ref=5 / deblock=1:0:0 / analyse=0x3:0x133 / me=umh / subme=7 / psy=1 / psy_rd=1.00:0.00 / mixed_ref=1 / me_range=16 / chroma_me=1 / trellis=1 / 8x8dct=1 / cqm=0 / deadzone=21,11 / fast_pskip=0 / chroma_qp_offset=-2 / threads=24 / lookahead_threads=4 / sliced_threads=0 / nr=0 / decimate=1 / interlaced=0 / bluray_compat=0 / constrained_intra=0 / bframes=3 / b_pyramid=2 / b_adapt=1 / b_bias=0 / direct=1 / weightb=1 / open_gop=0 / weightp=2 / keyint=250 / keyint_min=23 / scenecut=40 / intra_refresh=0 / rc_lookahead=40 / rc=2pass / mbtree=1 / bitrate=8877 / ratetol=1.0 / qcomp=0.60 / qpmin=0 / qpmax=69 / qpstep=4 / cplxblur=20.0 / qblur=0.5 / ip_ratio=1.40 / aq=1:1.00
Default : Yes
Forced : No

Audio #1
ID : 2
Format : AC-3
Format/Info : Audio Coding 3
Codec ID : A_AC3
Duration : 2 h 0 min
Bit rate mode : Constant
Bit rate : 384 kb/s
Channel(s) : 6 channels
Channel positions : Front: L C R, Side: L R, LFE
Sampling rate : 48.0 kHz
Frame rate : 31.250 FPS (1536 SPF)
Bit depth : 16 bits
Compression mode : Lossy
Stream size : 331 MiB (4%)
Language : Czech
Service kind : Complete Main
Default : Yes
Forced : No

Audio #2
ID : 3
Format : DTS
Format/Info : Digital Theater Systems
Codec ID : A_DTS
Duration : 2 h 0 min
Bit rate mode : Constant
Bit rate : 1 509 kb/s
Channel(s) : 6 channels
Channel positions : Front: L C R, Side: L R, LFE
Sampling rate : 48.0 kHz
Frame rate : 93.750 FPS (512 SPF)
Bit depth : 24 bits
Compression mode : Lossy
Stream size : 1.27 GiB (14%)
Language : English
Default : No
Forced : No

Text #1
ID : 4
Format : UTF-8
Codec ID : S_TEXT/UTF8
Codec ID/Info : UTF-8 Plain Text
Duration : 1 h 52 min
Title : forced
Writing library : Lavc57.107.100 srt
Language : Czech
Default : Yes
Forced : No

Text #2
ID : 5
Format : UTF-8
Codec ID : S_TEXT/UTF8
Codec ID/Info : UTF-8 Plain Text
Duration : 2 h 0 min
Writing library : Lavc57.107.100 srt
Language : English
Default : No
Forced : No

FullHD - AVC
Jen registrovaní uživatelé mohou vidět odkazy v code. Přihlaste se nebo zaregistrujte ZDARMA.

________________________________________________________________________________


20 čer 2018, 15:46
Profil
Zobrazit příspěvky za předchozí:  Seřadit podle  
Odeslat nové téma Odpovědět na téma  [ Příspěvků: 2 ] 

Všechny časy jsou v UTC + 1 hodina


Nemůžete zakládat nová témata v tomto fóru
Nemůžete odpovídat v tomto fóru
Nemůžete upravovat své příspěvky v tomto fóru
Nemůžete mazat své příspěvky v tomto fóru
Nemůžete přikládat soubory v tomto fóru









StahovaniZaSMS Pizza Modena MP3 free download