fastshare
Mechanik zabiják / Mechanic, The (2011)
Vypnout statistiky
KATEGORIEPOSLEDNÍ PŘÍSPĚVKYPOSLEDNÍ OZNÁMENÍSTATISTIKY UŽIVATELE
Nick: Anonymous
Příspěvků: 3383
Hodnost: Warman
Varování: 0
---
Právě je 11 pro 2017, 12:04





Všechny časy jsou v UTC + 1 hodina


Pravidla fóra







Odeslat nové téma Odpovědět na téma  [ Příspěvků: 22 ]  Přejít na stránku 1, 2  Další
 Mechanik zabiják / Mechanic, The (2011) 
Autor Zpráva
Major
Major

Registrován: 12 čer 2011, 16:47
Příspěvky: 332
Příspěvek Mechanik zabiják / Mechanic, The (2011)

The.Mechanic.2011.BluRay.1080p.DTS.x264-CHD.CZ-LEADERs

Mechanik zabiják / Mechanic, The (2011)

CSFD:

Jen registrovaní uživatelé mohou vidět odkazy v code. Přihlaste se nebo zaregistrujte ZDARMA.


RLS iNFO
Jen registrovaní uživatelé mohou vidět odkazy v code. Přihlaste se nebo zaregistrujte ZDARMA.


HELLSHARE
Jen registrovaní uživatelé mohou vidět odkazy v code. Přihlaste se nebo zaregistrujte ZDARMA.


SHARE-RAPID
Jen registrovaní uživatelé mohou vidět odkazy v code. Přihlaste se nebo zaregistrujte ZDARMA.


25 pro 2011, 22:25
Profil
Warman
Warman
Uživatelský avatar

Registrován: 08 úno 2010, 10:54
Příspěvky: 1354
Příspěvek Re: Mechanik zabiják / Mechanic, The (2011)

Mechanik zabiják / Mechanic, The (2011)
Rel:The.Mechanic.2011.BluRay.1080p.DTS.x264-CHD

Re: Mechanik zabiják / Mechanic, The (2011)
Jazyk:CZ,EN
Titulky:CZ
Akční / Krimi / Thriller
USA, 2011, 93 min
Režie:Simon West
Hudba:Mark Isham
Hrají:Jason Statham, Ben Foster, Tony Goldwyn, Donald Sutherland, Jeff Chase, Mini Anden, Christa Campbell, Ada Michelle Loridans, Bill Scharpf
Odkaz
Jen registrovaní uživatelé mohou vidět odkazy v code. Přihlaste se nebo zaregistrujte ZDARMA.

Obsah
Arthur Bishop je “mechanik” – elitní zabiják s unikátním talentem pro čisté odklízení cílů. Je to práce, která vyžaduje profesionální přesnost a absolutní nestrannost… a Bishop je ten nejlepší. Když však zabijí jeho rádce a kamaráda Harryho, Bishop ztrácí jednu ze svých předností - nezaujatost. Další úkol tak přichází od něj samého: zodpovědní budou pykat! Jeho mise se však zkomplikuje, když se Harryho syn, Steve, k němu přidá se stejnou touhou po pomstě a odhodláním přiučit se Bishopovu řemeslu. Mechanik zabiják jel vždy jen sám na sebe, ale nemůže se ob…
INFO
Citace:
General / Container Stream #1
File Format.......................................Matroska
Play Time.........................................1h 32mn
Total File Size...................................11.8 GiB
Video Stream #1
Frame Width.......................................1 920 pixels
Frame Height......................................800 pixels
Frame Rate........................................23.976 fps
Display Aspect Ratio..............................2.40:1
Audio Stream #1
Codec.............................................DTS
Audio Stream BitRate..............................1 510 Kbps
Number of Audio Channels..........................6
Audio Channel's Positions.........................Front: L C R, Side: L R, LFE
Audio Stream Language.............................English
Audio Stream #2
Codec.............................................AC-3
Audio Stream BitRate..............................448 Kbps
Number of Audio Channels..........................6
Audio Channel's Positions.........................Front: L C R, Side: L R, LFE
Audio Stream Language.............................Czech
Subtitle Stream #1
Language..........................................Czech
Format............................................UTF-8
Codec ID..........................................S_TEXT/UTF8
Codec Info........................................UTF-8 Plain Text

Hellshare
Jen registrovaní uživatelé mohou vidět odkazy v code. Přihlaste se nebo zaregistrujte ZDARMA.

Share-Rapid
Jen registrovaní uživatelé mohou vidět odkazy v code. Přihlaste se nebo zaregistrujte ZDARMA.

Euroshare
Jen registrovaní uživatelé mohou vidět odkazy v code. Přihlaste se nebo zaregistrujte ZDARMA.

No Pass
Rozbalovat v 7zip (windows) a BetterZip (mac os)


26 pro 2011, 09:10
Profil
Army General
Army General

Registrován: 21 črc 2009, 11:51
Příspěvky: 936
Příspěvek Re: Mechanik zabiják / Mechanic, The (2011)

The Mechanic (2011) / 720p + 1080p / CZ

Re: Mechanik zabiják / Mechanic, The (2011)

Re: Mechanik zabiják / Mechanic, The (2011)
Jen registrovaní uživatelé mohou vidět odkazy v code. Přihlaste se nebo zaregistrujte ZDARMA.



Re: Mechanik zabiják / Mechanic, The (2011)
GENERAL 720p CZ
Citace:
Format : Matroska at 8 946 Kbps
Length : 5,79 GiB for 1h 32mn 44s 597ms

Video #0 : AVC at 6 993 Kbps
Aspect : 1280 x 534 (2.397) at 23.976 fps

Audio #0 : DTS at 1 510 Kbps
Infos : 6 kanály, 48,0 KHz
Language : en

Audio #1 : AC-3 at 448 Kbps
Infos : 6 kanály, 48,0 KHz
Language : cs

Text #0 : UTF-8
Language : cs




Re: Mechanik zabiják / Mechanic, The (2011)
Jen registrovaní uživatelé mohou vidět odkazy v code. Přihlaste se nebo zaregistrujte ZDARMA.



Re: Mechanik zabiják / Mechanic, The (2011)
Jen registrovaní uživatelé mohou vidět odkazy v code. Přihlaste se nebo zaregistrujte ZDARMA.



Re: Mechanik zabiják / Mechanic, The (2011)
Jen registrovaní uživatelé mohou vidět odkazy v code. Přihlaste se nebo zaregistrujte ZDARMA.


Re: Mechanik zabiják / Mechanic, The (2011)
Jen registrovaní uživatelé mohou vidět odkazy v code. Přihlaste se nebo zaregistrujte ZDARMA.




Re: Mechanik zabiják / Mechanic, The (2011)
GENERAL 1080p CZ
Citace:
Format : Matroska at 18,2 Mbps
Length : 11,8 GiB for 1h 32mn 44s 555ms

Video #0 : AVC at 16,2 Mbps
Aspect : 1920 x 800 (2.400) at 23.976 fps

Audio #0 : AC-3 at 448 Kbps
Infos : 6 kanály, 48,0 KHz
Language : cs

Audio #1 : DTS at 1 510 Kbps
Infos : 6 kanály, 48,0 KHz
Language : en

Text #0 : UTF-8
Language : cs




Re: Mechanik zabiják / Mechanic, The (2011)
Jen registrovaní uživatelé mohou vidět odkazy v code. Přihlaste se nebo zaregistrujte ZDARMA.



Re: Mechanik zabiják / Mechanic, The (2011)
Jen registrovaní uživatelé mohou vidět odkazy v code. Přihlaste se nebo zaregistrujte ZDARMA.



Re: Mechanik zabiják / Mechanic, The (2011)
Jen registrovaní uživatelé mohou vidět odkazy v code. Přihlaste se nebo zaregistrujte ZDARMA.


26 pro 2011, 10:05
Profil
Private
Private

Registrován: 15 kvě 2009, 10:15
Příspěvky: 9
Příspěvek Re: Mechanik zabiják / Mechanic, The (2011)

Co takhle to udělat na velikost zhruba 8gb je to strasně velkéé :)


26 pro 2011, 10:54
Profil
Corporal
Corporal
Uživatelský avatar

Registrován: 17 kvě 2008, 23:42
Příspěvky: 66
Příspěvek Re: Mechanik zabiják / Mechanic, The (2011)

Xces kvalitu...???Potom aj 11,8 GB je malo...Ide ti o velkost...???Stiahni si 650 MB DVDrip... ;)

_________________
...:::KF,XAAAPESH...???

Bol som tam,kde sa da najlepsie stat,ale ja som sedel... :P
ASUS Z87-C;Intel i7-4770K,GIGABYTE GTX 1070,Kingston 2x8GB KIT DDR3 1866MHz CL10,Samsung 840 EVO 500GB & ST 4TB,SB X-fi Titanium HD & Logitech Z-5500;Corsair GS700 W;Samsung T27D590EW;TV: Samsung UE46D8000


26 pro 2011, 11:58
Profil
Private 2 nd class
Private 2 nd class

Registrován: 15 úno 2011, 13:49
Příspěvky: 43
Příspěvek Re: Mechanik zabiják / Mechanic, The (2011)

Mechanik zabiják / 720p /CZ

__.__
Velikost : 4,51 GB
Formát : mkv
Rozlišení : 1280x536
Zvuk : 2.0 CZ, 5.1 DTS Eng
Titulky : Cz

)..(

Jen registrovaní uživatelé mohou vidět odkazy v code. Přihlaste se nebo zaregistrujte ZDARMA.


Naposledy upravil sam75 dne 27 pro 2011, 15:36, celkově upraveno 1

26 pro 2011, 12:50
Profil
Captain
Captain

Registrován: 17 zář 2011, 14:32
Příspěvky: 294
Příspěvek Re: Mechanik zabiják / Mechanic, The (2011)

Mechanik zabiják / Mechanic, The / 2011 / 720p+1080p / DTS EN 5.1 / DD 5.1 CZ

Re: Mechanik zabiják / Mechanic, The (2011)

Re: Mechanik zabiják / Mechanic, The (2011)
Jen registrovaní uživatelé mohou vidět odkazy v code. Přihlaste se nebo zaregistrujte ZDARMA.

Citace:
Akční / Krimi / Thriller
USA, 2011
Režie:
Simon West
Hudba:
Mark Isham
Hrají:
Jason Statham, Ben Foster, Tony Goldwyn, Donald Sutherland, Jeff Chase, Mini Anden, Christa Campbell, Ada Michelle Loridans, Bill Scharpf

Arthur Bishop je “mechanik” – elitní zabiják s unikátním talentem pro čisté odklízení cílů. Je to práce, která vyžaduje profesionální přesnost a absolutní nestrannost… a Bishop je ten nejlepší. Když však zabijí jeho rádce a kamaráda Harryho, Bishop ztrácí jednu ze svých předností - nezaujatost. Další úkol tak přichází od něj samého: zodpovědní budou pykat! Jeho mise se však zkomplikuje, když se Harryho syn, Steve, k němu přidá se stejnou touhou po pomstě a odhodláním přiučit se Bishopovu řemeslu. Mechanik zabiják jel vždy jen sám na sebe, ale nemůže se obrátit zády k Harryho synovi. Metodický nájemný vrah zavede impulzivního studenta do hloubi svého světa a smrtelné partnerství je zpečetěno.

Re: Mechanik zabiják / Mechanic, The (2011)
RLS:The.Mechanic.2011.BluRay.720p.DTS.x264.CHD.CZ-D4rR
Citace:
Format : Matroska
Format version : Version 2
File size : 5.79 GiB
Duration : 1h 32mn
Overall bit rate : 8 946 Kbps
Encoded date : UTC 2011-12-25 19:33:36
Writing application : mkvmerge v4.9.1 ('Ich will') built on Jul 11 2011 23:53:15
Writing library : libebml v1.2.1 + libmatroska v1.1.1

Video
ID : 1
Format : AVC
Format/Info : Advanced Video Codec
Format profile : [email protected]
Format settings, CABAC : Yes
Format settings, ReFrames : 12 frames
Muxing mode : Header stripping
Codec ID : V_MPEG4/ISO/AVC
Duration : 1h 32mn
Bit rate : 6 993 Kbps
Width : 1 280 pixels
Height : 534 pixels
Display aspect ratio : 2.40:1
Frame rate : 23.976 fps
Color space : YUV
Chroma subsampling : 4:2:0
Bit depth : 8 bits
Scan type : Progressive
Bits/(Pixel*Frame) : 0.427
Stream size : 4.41 GiB (76%)
Writing library : x264 core 114 r1900 60ef1f8
Encoding settings : cabac=1 / ref=12 / deblock=1:-3:-3 / analyse=0x3:0x113 / me=umh / subme=10 / psy=1 / psy_rd=1.05:0.10 / mixed_ref=1 / me_range=32 / chroma_me=1 / trellis=2 / 8x8dct=1 / cqm=2 / deadzone=21,11 / fast_pskip=0 / chroma_qp_offset=-2 / threads=6 / sliced_threads=0 / nr=0 / decimate=1 / interlaced=0 / constrained_intra=0 / bframes=6 / b_pyramid=2 / b_adapt=2 / b_bias=0 / direct=3 / weightb=1 / open_gop=0 / weightp=2 / keyint=250 / keyint_min=23 / scenecut=40 / intra_refresh=0 / rc_lookahead=60 / rc=2pass / mbtree=1 / bitrate=6993 / ratetol=1.0 / qcomp=0.60 / qpmin=1 / qpmax=63 / qpstep=4 / cplxblur=20.0 / qblur=0.5 / vbv_maxrate=40000 / vbv_bufsize=30000 / nal_hrd=none / ip_ratio=1.40 / aq=1:0.70
Language : English

Audio #1
ID : 2
Format : DTS
Format/Info : Digital Theater Systems
Muxing mode : Header stripping
Codec ID : A_DTS
Duration : 1h 32mn
Bit rate mode : Constant
Bit rate : 1 510 Kbps
Channel(s) : 6 channels
Channel positions : Front: L C R, Side: L R, LFE
Sampling rate : 48.0 KHz
Bit depth : 24 bits
Compression mode : Lossy
Stream size : 1 001 MiB (17%)
Title : DTS 5.1 @ 1.5 Mbps
Language : English

Audio #2
ID : 3
Format : AC-3
Format/Info : Audio Coding 3
Mode extension : CM (complete main)
Muxing mode : Header stripping
Codec ID : A_AC3
Duration : 1h 32mn
Bit rate mode : Constant
Bit rate : 448 Kbps
Channel(s) : 6 channels
Channel positions : Front: L C R, Side: L R, LFE
Sampling rate : 48.0 KHz
Bit depth : 16 bits
Compression mode : Lossy
Stream size : 297 MiB (5%)
Title : DD 5.1 @ 448 Kbps
Language : Czech

Text
ID : 4
Format : UTF-8
Codec ID : S_TEXT/UTF8
Codec ID/Info : UTF-8 Plain Text
Language : Czech


Re: Mechanik zabiják / Mechanic, The (2011)

Re: Mechanik zabiják / Mechanic, The (2011)
Jen registrovaní uživatelé mohou vidět odkazy v code. Přihlaste se nebo zaregistrujte ZDARMA.


Re: Mechanik zabiják / Mechanic, The (2011)

Re: Mechanik zabiják / Mechanic, The (2011)
Jen registrovaní uživatelé mohou vidět odkazy v code. Přihlaste se nebo zaregistrujte ZDARMA.


Re: Mechanik zabiják / Mechanic, The (2011)

Re: Mechanik zabiják / Mechanic, The (2011)

Jen registrovaní uživatelé mohou vidět odkazy v code. Přihlaste se nebo zaregistrujte ZDARMA.


Re: Mechanik zabiják / Mechanic, The (2011)

Re: Mechanik zabiják / Mechanic, The (2011)

Jen registrovaní uživatelé mohou vidět odkazy v code. Přihlaste se nebo zaregistrujte ZDARMA.


Re: Mechanik zabiják / Mechanic, The (2011)
RLS:The.Mechanic.2011.BluRay.1080p.DTS.x264-CHD.repack.5.1.CZ-LEADERs
Citace:
Format : Matroska
Format version : Version 2
File size : 11.8 GiB
Duration : 1h 32mn
Overall bit rate : 18.2 Mbps
Encoded date : UTC 2011-12-25 19:28:22
Writing application : mkvmerge v5.0.1 ('Es ist Sommer') built on Oct 9 2011 11:55:43
Writing library : libebml v1.2.2 + libmatroska v1.3.0

Video
ID : 1
Format : AVC
Format/Info : Advanced Video Codec
Format profile : [email protected]
Format settings, CABAC : Yes
Format settings, ReFrames : 5 frames
Codec ID : V_MPEG4/ISO/AVC
Duration : 1h 32mn
Bit rate : 16.2 Mbps
Width : 1 920 pixels
Height : 800 pixels
Display aspect ratio : 2.40:1
Frame rate : 23.976 fps
Color space : YUV
Chroma subsampling : 4:2:0
Bit depth : 8 bits
Scan type : Progressive
Bits/(Pixel*Frame) : 0.441
Stream size : 10.3 GiB (87%)
Writing library : x264 core 114 r1924 08d04a4
Encoding settings : cabac=1 / ref=5 / deblock=1:-3:-3 / analyse=0x3:0x113 / me=umh / subme=10 / psy=1 / psy_rd=1.10:0.10 / mixed_ref=1 / me_range=48 / chroma_me=1 / trellis=2 / 8x8dct=1 / cqm=2 / deadzone=21,11 / fast_pskip=0 / chroma_qp_offset=-2 / threads=12 / sliced_threads=0 / nr=0 / decimate=1 / interlaced=0 / constrained_intra=0 / bframes=6 / b_pyramid=2 / b_adapt=2 / b_bias=0 / direct=3 / weightb=1 / open_gop=0 / weightp=2 / keyint=250 / keyint_min=23 / scenecut=40 / intra_refresh=0 / rc_lookahead=60 / rc=2pass / mbtree=1 / bitrate=16241 / ratetol=1.0 / qcomp=0.70 / qpmin=1 / qpmax=63 / qpstep=4 / cplxblur=20.0 / qblur=0.5 / vbv_maxrate=40000 / vbv_bufsize=30000 / nal_hrd=none / ip_ratio=1.40 / aq=2:0.70
Language : English

Audio #1
ID : 2
Format : AC-3
Format/Info : Audio Coding 3
Mode extension : CM (complete main)
Codec ID : A_AC3
Duration : 1h 32mn
Bit rate mode : Constant
Bit rate : 448 Kbps
Channel(s) : 6 channels
Channel positions : Front: L C R, Side: L R, LFE
Sampling rate : 48.0 KHz
Bit depth : 16 bits
Compression mode : Lossy
Stream size : 297 MiB (2%)
Title : cz
Language : Czech

Audio #2
ID : 3
Format : DTS
Format/Info : Digital Theater Systems
Codec ID : A_DTS
Duration : 1h 32mn
Bit rate mode : Constant
Bit rate : 1 510 Kbps
Channel(s) : 6 channels
Channel positions : Front: L C R, Side: L R, LFE
Sampling rate : 48.0 KHz
Bit depth : 24 bits
Compression mode : Lossy
Stream size : 1 001 MiB (8%)
Title : DTS [email protected],5Mb/s
Language : English

Text
ID : 4
Format : UTF-8
Codec ID : S_TEXT/UTF8
Codec ID/Info : UTF-8 Plain Text
Title : cz titulky
Language : Czech


Re: Mechanik zabiják / Mechanic, The (2011)

Re: Mechanik zabiják / Mechanic, The (2011)
Jen registrovaní uživatelé mohou vidět odkazy v code. Přihlaste se nebo zaregistrujte ZDARMA.


Re: Mechanik zabiják / Mechanic, The (2011)

Re: Mechanik zabiják / Mechanic, The (2011)
Jen registrovaní uživatelé mohou vidět odkazy v code. Přihlaste se nebo zaregistrujte ZDARMA.


Re: Mechanik zabiják / Mechanic, The (2011)

Re: Mechanik zabiják / Mechanic, The (2011)

Jen registrovaní uživatelé mohou vidět odkazy v code. Přihlaste se nebo zaregistrujte ZDARMA.


Re: Mechanik zabiják / Mechanic, The (2011)

Re: Mechanik zabiják / Mechanic, The (2011)

Jen registrovaní uživatelé mohou vidět odkazy v code. Přihlaste se nebo zaregistrujte ZDARMA.


Re: Mechanik zabiják / Mechanic, The (2011)


26 pro 2011, 15:51
Profil
Warman
Warman
Uživatelský avatar

Registrován: 22 srp 2011, 22:06
Příspěvky: 1013
Příspěvek Re: Mechanik zabiják / Mechanic, The (2011)

České vložené audio z dvd je hrůza,tak pro ty co mají rádi kvalitu zvuku Dolby Digital,jen originál si pustit v DTS!!!!NORTH VIDEO,to nadabovalo,jen v 2.0.DD,tak jim můžem poděkovat.Jedině,že by to někdo pořádně s enkodoval,třeba Gogomiro,co?


26 pro 2011, 21:43
Profil
Private 1 st class
Private 1 st class

Registrován: 17 lis 2011, 07:23
Příspěvky: 32
Příspěvek Re: Mechanik zabiják / Mechanic, The (2011)

Mechanik zabiják / Mechanic, The (2011)
The.Mechanic.2011.BluRay.1080p.DTS.x264-CHD.CZ-LEADERs


Re: Mechanik zabiják / Mechanic, The (2011)

Re: Mechanik zabiják / Mechanic, The (2011)
Jen registrovaní uživatelé mohou vidět odkazy v code. Přihlaste se nebo zaregistrujte ZDARMA.

Re: Mechanik zabiják / Mechanic, The (2011)
Citace:
General
Unique ID : 183080753560087455493356470142753580608 (0x89BC120FB6170B2D88F141F048D02640)
Complete name : D:\stazene\strojnik80.CZ.mkv
Format : Matroska
Format version : Version 2
File size : 11.8 GiB
Duration : 1h 32mn
Overall bit rate : 18.2 Mbps
Encoded date : UTC 2011-12-25 19:28:22
Writing application : mkvmerge v5.0.1 ('Es ist Sommer') built on Oct 9 2011 11:55:43
Writing library : libebml v1.2.2 + libmatroska v1.3.0

Video
ID : 1
Format : AVC
Format/Info : Advanced Video Codec
Format profile : [email protected]
Format settings, CABAC : Yes
Format settings, ReFrames : 5 frames
Codec ID : V_MPEG4/ISO/AVC
Duration : 1h 32mn
Bit rate : 16.2 Mbps
Width : 1 920 pixels
Height : 800 pixels
Display aspect ratio : 2.40:1
Frame rate : 23.976 fps
Color space : YUV
Chroma subsampling : 4:2:0
Bit depth : 8 bits
Scan type : Progressive
Bits/(Pixel*Frame) : 0.441
Stream size : 10.3 GiB (87%)
Title : The.Mechanic.2011.BluRay.1080p.DTS.x264-CHD
Writing library : x264 core 114 r1924 08d04a4
Encoding settings : cabac=1 / ref=5 / deblock=1:-3:-3 / analyse=0x3:0x113 / me=umh / subme=10 / psy=1 / psy_rd=1.10:0.10 / mixed_ref=1 / me_range=48 / chroma_me=1 / trellis=2 / 8x8dct=1 / cqm=2 / deadzone=21,11 / fast_pskip=0 / chroma_qp_offset=-2 / threads=12 / sliced_threads=0 / nr=0 / decimate=1 / interlaced=0 / constrained_intra=0 / bframes=6 / b_pyramid=2 / b_adapt=2 / b_bias=0 / direct=3 / weightb=1 / open_gop=0 / weightp=2 / keyint=250 / keyint_min=23 / scenecut=40 / intra_refresh=0 / rc_lookahead=60 / rc=2pass / mbtree=1 / bitrate=16241 / ratetol=1.0 / qcomp=0.70 / qpmin=1 / qpmax=63 / qpstep=4 / cplxblur=20.0 / qblur=0.5 / vbv_maxrate=40000 / vbv_bufsize=30000 / nal_hrd=none / ip_ratio=1.40 / aq=2:0.70
Language : English

Audio #1
ID : 2
Format : AC-3
Format/Info : Audio Coding 3
Mode extension : CM (complete main)
Codec ID : A_AC3
Duration : 1h 32mn
Bit rate mode : Constant
Bit rate : 448 Kbps
Channel(s) : 6 channels
Channel positions : Front: L C R, Side: L R, LFE
Sampling rate : 48.0 KHz
Bit depth : 16 bits
Compression mode : Lossy
Stream size : 297 MiB (2%)
Title : cz
Language : Czech

Audio #2
ID : 3
Format : DTS
Format/Info : Digital Theater Systems
Codec ID : A_DTS
Duration : 1h 32mn
Bit rate mode : Constant
Bit rate : 1 510 Kbps
Channel(s) : 6 channels
Channel positions : Front: L C R, Side: L R, LFE
Sampling rate : 48.0 KHz
Bit depth : 24 bits
Compression mode : Lossy
Stream size : 1 001 MiB (8%)
Title : DTS [email protected],5Mb/s
Language : English

Text
ID : 4
Format : UTF-8
Codec ID : S_TEXT/UTF8
Codec ID/Info : UTF-8 Plain Text
Title : cz titulky
Language : Czech


Re: Mechanik zabiják / Mechanic, The (2011)

Re: Mechanik zabiják / Mechanic, The (2011)
Jen registrovaní uživatelé mohou vidět odkazy v code. Přihlaste se nebo zaregistrujte ZDARMA.


Re: Mechanik zabiják / Mechanic, The (2011)

Jen registrovaní uživatelé mohou vidět odkazy v code. Přihlaste se nebo zaregistrujte ZDARMA.


Re: Mechanik zabiják / Mechanic, The (2011)

Jen registrovaní uživatelé mohou vidět odkazy v code. Přihlaste se nebo zaregistrujte ZDARMA.


28 pro 2011, 11:37
Profil
Sergeant
Sergeant

Registrován: 10 kvě 2009, 16:58
Příspěvky: 84
Příspěvek Re: Mechanik zabiják / Mechanic, The (2011)

Mechanik zabiják / Mechanic, The (2011)/1080/

Re: Mechanik zabiják / Mechanic, The (2011)


Re: Mechanik zabiják / Mechanic, The (2011)
Citace:
Akční / Krimi / Thriller
USA, 2011, 93 min
Režie:Simon West
Hudba:Mark Isham
Hrají:Jason Statham, Ben Foster, Tony Goldwyn, Donald Sutherland, Jeff Chase, Mini Anden, Christa Campbell, Ada Michelle Loridans, Bill Scharpf
Arthur Bishop je “mechanik” – elitní zabiják s unikátním talentem pro čisté odklízení cílů. Je to práce, která vyžaduje profesionální přesnost a absolutní nestrannost… a Bishop je ten nejlepší. Když však zabijí jeho rádce a kamaráda Harryho, Bishop ztrácí jednu ze svých předností - nezaujatost. Další úkol tak přichází od něj samého: zodpovědní budou pykat! Jeho mise se však zkomplikuje, když se Harryho syn, Steve, k němu přidá se stejnou touhou po pomstě a odhodláním přiučit se Bishopovu řemeslu. Mechanik zabiják jel vždy jen sám na sebe, ale nemůže se ob…


Re: Mechanik zabiják / Mechanic, The (2011)
Jen registrovaní uživatelé mohou vidět odkazy v code. Přihlaste se nebo zaregistrujte ZDARMA.


Re: Mechanik zabiják / Mechanic, The (2011)
Citace:
Format : Matroska
File size : 11.8 GiB
Duration : 1h 32mn
Overall bit rate : 18.2 Mbps
Encoded date : UTC 2011-12-25 19:28:22
Writing application : mkvmerge v5.0.1 ('Es ist Sommer') built on Oct 9 2011 11:55:43
Writing library : libebml v1.2.2 + libmatroska v1.3.0

Video
ID : 1
Format : AVC
Format/Info : Advanced Video Codec
Format profile : [email protected]
Format settings, CABAC : Yes
Format settings, ReFrames : 5 frames
Muxing mode : Container [email protected]
Codec ID : V_MPEG4/ISO/AVC
Duration : 1h 32mn
Bit rate : 16.2 Mbps
Width : 1 920 pixels
Height : 800 pixels
Display aspect ratio : 2.40:1
Frame rate : 23.976 fps
Color space : YUV
Chroma subsampling : 4:2:0
Bit depth : 8 bits
Scan type : Progressive
Bits/(Pixel*Frame) : 0.441
Stream size : 10.3 GiB (87%)
Title : The.Mechanic.2011.BluRay.1080p.DTS.x264-CHD
Writing library : x264 core 114 r1924 08d04a4
Encoding settings : cabac=1 / ref=5 / deblock=1:-3:-3 / analyse=0x3:0x113 / me=umh / subme=10 / psy=1 / psy_rd=1.10:0.10 / mixed_ref=1 / me_range=48 / chroma_me=1 / trellis=2 / 8x8dct=1 / cqm=2 / deadzone=21,11 / fast_pskip=0 / chroma_qp_offset=-2 / threads=12 / sliced_threads=0 / nr=0 / decimate=1 / interlaced=0 / constrained_intra=0 / bframes=6 / b_pyramid=2 / b_adapt=2 / b_bias=0 / direct=3 / weightb=1 / open_gop=0 / weightp=2 / keyint=250 / keyint_min=23 / scenecut=40 / intra_refresh=0 / rc_lookahead=60 / rc=2pass / mbtree=1 / bitrate=16241 / ratetol=1.0 / qcomp=0.70 / qpmin=1 / qpmax=63 / qpstep=4 / cplxblur=20.0 / qblur=0.5 / vbv_maxrate=40000 / vbv_bufsize=30000 / nal_hrd=none / ip_ratio=1.40 / aq=2:0.70

Audio #1
ID : 2
Format : AC-3
Format/Info : Audio Coding 3
Mode extension : CM (complete main)
Codec ID : A_AC3
Duration : 1h 32mn
Bit rate mode : Constant
Bit rate : 448 Kbps
Channel(s) : 6 channels
Channel positions : Front: L C R, Side: L R, LFE
Sampling rate : 48.0 KHz
Stream size : 297 MiB (2%)
Title : cz
Language : Czech

Audio #2
ID : 3
Format : DTS
Format/Info : Digital Theater Systems
Codec ID : A_DTS
Duration : 1h 32mn
Bit rate mode : Constant
Bit rate : 1 510 Kbps
Channel(s) : 6 channels
Channel positions : Front: L C R, Side: L R, LFE
Sampling rate : 48.0 KHz
Bit depth : 24 bits
Stream size : 1 001 MiB (8%)
Title : DTS [email protected],5Mb/s

Text
ID : 4
Format : UTF-8
Codec ID : S_TEXT/UTF8
Codec ID/Info : UTF-8 Plain Text
Title : cz titulky
Language : Czech




Re: Mechanik zabiják / Mechanic, The (2011)


Re: Mechanik zabiják / Mechanic, The (2011)
Jen registrovaní uživatelé mohou vidět odkazy v code. Přihlaste se nebo zaregistrujte ZDARMA.



Re: Mechanik zabiják / Mechanic, The (2011)
Jen registrovaní uživatelé mohou vidět odkazy v code. Přihlaste se nebo zaregistrujte ZDARMA.



Re: Mechanik zabiják / Mechanic, The (2011)


04 led 2012, 13:40
Profil
Corporal
Corporal

Registrován: 25 úno 2009, 15:21
Příspěvky: 65
Příspěvek Re: Mechanik zabiják / Mechanic, The (2011)

Mechanik zabiják [720p]
Re: Mechanik zabiják / Mechanic, The (2011)
ČSFD:
Jen registrovaní uživatelé mohou vidět odkazy v code. Přihlaste se nebo zaregistrujte ZDARMA.

INFO:
Jen registrovaní uživatelé mohou vidět odkazy v code. Přihlaste se nebo zaregistrujte ZDARMA.


DOWNLOAD:
Jen registrovaní uživatelé mohou vidět odkazy v code. Přihlaste se nebo zaregistrujte ZDARMA.


10 led 2012, 11:32
Profil
Colonel 4 th class
Colonel 4 th class
Uživatelský avatar

Registrován: 11 kvě 2009, 20:22
Příspěvky: 539
Příspěvek Re: Mechanik zabiják / Mechanic, The (2011)

Mechanik zabiják / Mechanic, The (2011)
Release: The.Mechanic.2011.1080p.BluRay.X264-AMIABLE.cz

Audio: CZ AC3 5.1, EN DTS 5.1
Titulky: CZ, EN
    Re: Mechanik zabiják / Mechanic, The (2011)

Csfd
Jen registrovaní uživatelé mohou vidět odkazy v code. Přihlaste se nebo zaregistrujte ZDARMA.

Info
Jen registrovaní uživatelé mohou vidět odkazy v code. Přihlaste se nebo zaregistrujte ZDARMA.

Fileserve.com
Jen registrovaní uživatelé mohou vidět odkazy v code. Přihlaste se nebo zaregistrujte ZDARMA.

No password | 1gb parts |5% Recovery Record

Pro stahování z linkcrypt je nutný program jdownloader, pokud byste s tím měli problém, napište PM a já vám pošlu normální linky...

_________________
"Led Zeppelin — the only way to fly"


18 led 2012, 09:11
Profil
Warman
Warman
Uživatelský avatar

Registrován: 08 črc 2007, 10:57
Příspěvky: 8236
Příspěvek Re: Mechanik zabiják / Mechanic, The (2011)

Mechanik zabiják / Mechanic, The (2011)
Re: Mechanik zabiják / Mechanic, The (2011)
Akční / Krimi / Thriller
USA, 2011, 93 min
Jen registrovaní uživatelé mohou vidět odkazy v code. Přihlaste se nebo zaregistrujte ZDARMA.

Režie:
Simon West
Hudba:
Mark Isham
Hrají:
Jason Statham, Ben Foster, Tony Goldwyn, Donald Sutherland, Jeff Chase, Mini Anden,
Christa Campbell, Ada Michelle Loridans, Bill Scharpf

Obsah:

Arthur Bishop je “mechanik” – elitní zabiják s unikátním talentem pro čisté odklízení cílů.
Je to práce, která vyžaduje profesionální přesnost a absolutní nestrannost… a Bishop je ten
nejlepší. Když však zabijí jeho rádce a kamaráda Harryho, Bishop ztrácí jednu ze svých
předností - nezaujatost. Další úkol tak přichází od něj samého: zodpovědní budou pykat!
Jeho mise se však zkomplikuje, když se Harryho syn, Steve, k němu přidá se stejnou touhou
po pomstě a odhodláním přiučit se Bishopovu řemeslu. Mechanik zabiják jel vždy jen sám na
sebe, ale nemůže se obrátit zády k Harryho synovi. Metodický nájemný vrah zavede
impulzivního studenta do hloubi svého světa a smrtelné partnerství je zpečetěno...

DVD5
Velikost: 4.31 GB
Jazyk: DD Česky 5.1 , DTS Anglicky
Titulky: české
Kvalita videa: MPEG2 PAL VBR 5600 kbits
Menu: ne
Bonusy: ne

Spojit Total Commanderem
Re: Mechanik zabiják / Mechanic, The (2011)

euroshare
Jen registrovaní uživatelé mohou vidět odkazy v code. Přihlaste se nebo zaregistrujte ZDARMA.

czshare
Jen registrovaní uživatelé mohou vidět odkazy v code. Přihlaste se nebo zaregistrujte ZDARMA.

hellshare
Jen registrovaní uživatelé mohou vidět odkazy v code. Přihlaste se nebo zaregistrujte ZDARMA.

share-rapid

Jen registrovaní uživatelé mohou vidět odkazy v code. Přihlaste se nebo zaregistrujte ZDARMA.


Linky jsou kombinovatelné
STÁHNOUT,VYZKOUŠET A POSOUDIT,ZDA KOUPIT,NEBO NEKOUPIT,,,
Koupí pirátských filmů podporujete zloděje
Pokud jsi můj upload stáhl a líbil se Ti,kup si ho,dokud je ještě k mání.
PODĚKOVÁNÍ VÁM NEUBLÍŽÍ A MĚ MOTIVUJE
Jak předejít infarktu?Poslat do řiti každého dřív,než Tě nasere,,,
enjoy_by_lepin
Re: Mechanik zabiják / Mechanic, The (2011)
Re: Mechanik zabiják / Mechanic, The (2011)


21 led 2012, 14:12
Profil
Příspěvek Re: Mechanik zabiják / Mechanic, The (2011)

Mechanik zabiják / The Mechanic (2011) [1080p]

Re: Mechanik zabiják / Mechanic, The (2011)

Režie:Simon West
Hudba:Mark Isham

Hrají:
Jason Statham, Ben Foster, Tony Goldwyn, Donald Sutherland, Jeff Chase, Mini Anden, Christa Campbell, Ada Michelle Loridans, Bill Scharpf

Arthur Bishop je “mechanik” – elitní zabiják s unikátním talentem pro čisté odklízení cílů. Je to práce, která vyžaduje profesionální přesnost a absolutní nestrannost… a Bishop je ten nejlepší. Když však zabijí jeho rádce a kamaráda Harryho, Bishop ztrácí jednu ze svých předností - nezaujatost. Další úkol tak přichází od něj samého: zodpovědní budou pykat! Jeho mise se však zkomplikuje, když se Harryho syn, Steve, k němu přidá se stejnou touhou po pomstě a odhodláním přiučit se Bishopovu řemeslu. Mechanik zabiják jel vždy jen sám na sebe, ale nemůže se obrátit zády k Harryho synovi. Metodický nájemný vrah zavede impulzivního studenta do hloubi svého světa a smrtelné partnerství je zpečetěno.

Re: Mechanik zabiják / Mechanic, The (2011)


Jen registrovaní uživatelé mohou vidět odkazy v code. Přihlaste se nebo zaregistrujte ZDARMA.



Re: Mechanik zabiják / Mechanic, The (2011)


Jazyk: CZ,EN
Titulky: CZ,EN
Odkaz na CSFD:
Rok vydání: 2011
Délka: 93 min.
Žánr: Akční / Krimi / Thriller


Formát : Matroska
Format_Version: Version 2
Velikost souboru: 12,7 GiB
Duration/String: 1h 32mn
Celkový BitRate: 19,7 Mbps
Encoded date: UTC 2011-12-25 15:04:48
Formát: AVC
Formát/: Advanced Video Codec
Format_Profile: [email protected]
Format_Settings_CABAC/String: Ano
Format_Settings_RefFrames/String: 5 frame
CodecID: V_MPEG4/ISO/AVC
Duration/String: 1h 32mn
Bit rate: 17,9 Mbps
Šířka: 1 920pixely
Výška: 800pixely
Poměr stran: 2,40:1
Frame rate: 23,976 fps
ColorSpace: YUV
ChromaSubsampling: 4:2:0
BitDepth/String: 8 bits
ScanType/String: Progressive
Bits/(Pixel*Frame): 0.487
StreamSize/String: 11,4 GiB (89%)

Audio #1
ID: 2
Formát: DTS
Formát/: Digital Theater Systems
CodecID: A_DTS
Duration/String: 1h 32mn
Bit rate: 1 510 Kbps
Kanál(y): 6 kanály
Channel positions: Front: L C R, Side: L R, LFE
Sampling rate: 48,0 KHz
BitDepth/String: 24 bits
Video delay: 11ms
StreamSize/String: 1 001 MiB (8%)
Titul: ENG
Jazyk: English
Default: Ne
Forced: Ne

Audio #2
ID: 5
Formát: AC-3
Formát/: Audio Coding 3
Format_Settings_ModeExtension: CM (complete main)
CodecID: A_AC3
Duration/String: 1h 32mn
Bit rate: 224 Kbps
Kanál(y): 2 kanály
Channel positions: Front: L R
Sampling rate: 48,0 KHz
BitDepth/String: 16 bits
Video delay: 24ms
StreamSize/String: 149 MiB (1%)
Jazyk: Czech
Default: Ne
Forced: Ne

Text #1
ID: 3
Formát: UTF-8
CodecID: S_TEXT/UTF8
/: UTF-8 Plain Text
Titul: ENG
Jazyk: English
Default: Ne
Forced: Ne

Text #2
ID: 4
Formát: UTF-8
CodecID: S_TEXT/UTF8
/: UTF-8 Plain Text
Jazyk: Czech
Default: Ano
Forced: Ne






Re: Mechanik zabiják / Mechanic, The (2011)


Jen registrovaní uživatelé mohou vidět odkazy v code. Přihlaste se nebo zaregistrujte ZDARMA.






BEZ HESLA


Naposledy upravil Raketobijec dne 27 led 2012, 16:29, celkově upraveno 1

23 led 2012, 19:35
Colonel 5 th class
Colonel 5 th class

Registrován: 28 lis 2007, 11:30
Příspěvky: 685
Příspěvek Mechanik zabiják / The Mechanic (2011)

Mechanik zabiják / The Mechanic (2011)

Mechanik zabiják / The Mechanic (2011)

Jen registrovaní uživatelé mohou vidět odkazy v code. Přihlaste se nebo zaregistrujte ZDARMA.



Akční / Krimi / Thriller
USA, 2011, 93 min

Režie: Simon West
Hudba: Mark Isham
Hrají: Jason Statham, Ben Foster, Tony Goldwyn, Donald Sutherland, Jeff Chase, Mini Anden, Christa Campbell, Ada Michelle Loridans, Bill Scharpf, James Logan


Arthur Bishop je “mechanik” – elitní zabiják s unikátním talentem pro čisté odklízení cílů. Je to práce, která vyžaduje profesionální přesnost a absolutní nestrannost… a Bishop je ten nejlepší. Když však zabijí jeho rádce a kamaráda Harryho, Bishop ztrácí jednu ze svých předností - nezaujatost. Další úkol tak přichází od něj samého: zodpovědní budou pykat! Jeho mise se však zkomplikuje, když se Harryho syn, Steve, k němu přidá se stejnou touhou po pomstě a odhodláním přiučit se Bishopovu řemeslu. Mechanik zabiják jel vždy jen sám na sebe, ale nemůže se obrátit zády k Harryho synovi. Metodický nájemný vrah zavede impulzivního studenta do hloubi svého světa a smrtelné partnerství je zpečetěno.


Jen registrovaní uživatelé mohou vidět odkazy v code. Přihlaste se nebo zaregistrujte ZDARMA.



Jen registrovaní uživatelé mohou vidět odkazy v code. Přihlaste se nebo zaregistrujte ZDARMA.


24 led 2012, 19:20
Profil
Zobrazit příspěvky za předchozí:  Seřadit podle  
Odeslat nové téma Odpovědět na téma  [ Příspěvků: 22 ]  Přejít na stránku 1, 2  Další

Všechny časy jsou v UTC + 1 hodina


Nemůžete zakládat nová témata v tomto fóru
Nemůžete odpovídat v tomto fóru
Nemůžete upravovat své příspěvky v tomto fóru
Nemůžete mazat své příspěvky v tomto fóru
Nemůžete přikládat soubory v tomto fóru









StahovaniZaSMS Pizza Modena MP3 free download