fastshare
Lies We Tell (2017)
Vypnout statistiky
KATEGORIEPOSLEDNÍ PŘÍSPĚVKYPOSLEDNÍ OZNÁMENÍSTATISTIKY UŽIVATELE
Nick: Anonymous
Příspěvků: 3379
Hodnost: Warman
Varování: 0
---
Právě je 24 dub 2018, 10:00





Všechny časy jsou v UTC + 1 hodina


Pravidla fóra


    Pravidla pro Filmy - Novinky >>> ZDE <<< - Nepatří sem ripy z orig. DVD a Blu-Ray!





Odeslat nové téma Odpovědět na téma  [ Příspěvek: 1 ] 
 Lies We Tell (2017) 
Autor Zpráva
Colonel
Colonel

Registrován: 15 zář 2017, 11:53
Příspěvky: 380
Příspěvek Lies We Tell (2017)

Lies We Tell (2017)


Lies We Tell (2017)


Jen registrovaní uživatelé mohou vidět odkazy v code. Přihlaste se nebo zaregistrujte ZDARMA.



Lies.We.Tell.2017.1080p.WEB-DL.DD5.1.x264


Format : Matroska
Format version : Version 4 / Version 2
File size : 3.81 GiB
Duration : 1h 49mn
Overall bit rate : 4 971 Kbps

Video
ID : 1
Format : AVC
Format/Info : Advanced Video Codec
Format profile : [email protected]
Format settings, CABAC : Yes
Format settings, ReFrames : 5 frames
Codec ID : V_MPEG4/ISO/AVC
Duration : 1h 49mn
Bit rate : 4 489 Kbps
Width : 1 916 pixels
Height : 800 pixels
Display aspect ratio : 2.40:1
Frame rate : 24.000 fps
Color space : YUV
Chroma subsampling : 4:2:0
Bit depth : 8 bits
Scan type : Progressive
Bits/(Pixel*Frame) : 0.122
Stream size : 3.44 GiB (90%)
Language : English

Audio
ID : 2
Format : AC-3
Format/Info : Audio Coding 3
Mode extension : CM (complete main)
Codec ID : A_AC3
Duration : 1h 49mn
Bit rate mode : Constant
Bit rate : 384 Kbps
Channel(s) : 6 channels
Channel positions : Front: L C R, Side: L R, LFE
Sampling rate : 48.0 KHz
Bit depth : 16 bits
Compression mode : Lossy
Stream size : 301 MiB (8%)
Title : AC3 5.1
Language : English

Text
ID : 3
Format : UTF-8
Codec ID : S_TEXT/UTF8
Codec ID/Info : UTF-8 Plain Text
Language : English



Jen registrovaní uživatelé mohou vidět odkazy v code. Přihlaste se nebo zaregistrujte ZDARMA.




Titulky zatím nejsou


13 bře 2018, 00:41
Profil
Zobrazit příspěvky za předchozí:  Seřadit podle  
Odeslat nové téma Odpovědět na téma  [ Příspěvek: 1 ] 

Všechny časy jsou v UTC + 1 hodina


Nemůžete zakládat nová témata v tomto fóru
Nemůžete odpovídat v tomto fóru
Nemůžete upravovat své příspěvky v tomto fóru
Nemůžete mazat své příspěvky v tomto fóru
Nemůžete přikládat soubory v tomto fóru









StahovaniZaSMS Pizza Modena MP3 free download