fastshare
Small Town Crime (2017)
Vypnout statistiky
KATEGORIEPOSLEDNÍ PŘÍSPĚVKYPOSLEDNÍ OZNÁMENÍSTATISTIKY UŽIVATELE
Nick: Anonymous
Příspěvků: 3379
Hodnost: Warman
Varování: 0
---
Právě je 26 dub 2018, 10:40





Všechny časy jsou v UTC + 1 hodina


Pravidla fóra


    Pravidla pro Filmy - Novinky >>> ZDE <<< - Nepatří sem ripy z orig. DVD a Blu-Ray!





Odeslat nové téma Odpovědět na téma  [ Příspěvků: 2 ] 
 Small Town Crime (2017) 
Autor Zpráva
Colonel
Colonel

Registrován: 15 zář 2017, 11:53
Příspěvky: 384
Příspěvek Small Town Crime (2017)

Small Town Crime (2017)


Small Town Crime (2017)


Jen registrovaní uživatelé mohou vidět odkazy v code. Přihlaste se nebo zaregistrujte ZDARMA.



Small.Town.Crime.2017.1080p.WEB-DL.x264.CZ.Titulky


Format : Matroska
Format version : Version 4 / Version 2
File size : 3.19 GiB
Duration : 1h 32mn
Overall bit rate : 4 955 Kbps

Video
ID : 1
Format : AVC
Format/Info : Advanced Video Codec
Format profile : [email protected]
Format settings, CABAC : Yes
Format settings, ReFrames : 5 frames
Codec ID : V_MPEG4/ISO/AVC
Duration : 1h 32mn
Bit rate : 4 473 Kbps
Width : 1 908 pixels
Height : 792 pixels
Display aspect ratio : 2.40:1
Frame rate : 23.976 fps
Color space : YUV
Chroma subsampling : 4:2:0
Bit depth : 8 bits
Scan type : Progressive
Bits/(Pixel*Frame) : 0.123
Stream size : 2.88 GiB (90%)
Language : English

Audio
ID : 2
Format : AC-3
Format/Info : Audio Coding 3
Mode extension : CM (complete main)
Codec ID : A_AC3
Duration : 1h 32mn
Bit rate mode : Constant
Bit rate : 384 Kbps
Channel(s) : 6 channels
Channel positions : Front: L C R, Side: L R, LFE
Sampling rate : 48.0 KHz
Bit depth : 16 bits
Compression mode : Lossy
Delay relative to video : -42ms
Stream size : 253 MiB (8%)
Title : AC3 5.1
Language : English

Text
ID : 3
Format : UTF-8
Codec ID : S_TEXT/UTF8
Codec ID/Info : UTF-8 Plain Text
Language : Czech



Jen registrovaní uživatelé mohou vidět odkazy v code. Přihlaste se nebo zaregistrujte ZDARMA.


12 bře 2018, 18:21
Profil
Master Sergant
Master Sergant

Registrován: 09 bře 2009, 18:27
Příspěvky: 148
Příspěvek Re: Small Town Crime (2017)

small-town-crime-2017-webrip + CZ Titulky



Cover:

Re: Small Town Crime (2017)

Info:

Jazyk: EN 5.1
Titulky: CZ Titulky
Kvalita zvuku: MediaInfo
Kvalita videa: MediaInfo
Csfd:
Jen registrovaní uživatelé mohou vidět odkazy v code. Přihlaste se nebo zaregistrujte ZDARMA.

Info:
Jen registrovaní uživatelé mohou vidět odkazy v code. Přihlaste se nebo zaregistrujte ZDARMA.


Download:
Jen registrovaní uživatelé mohou vidět odkazy v code. Přihlaste se nebo zaregistrujte ZDARMA.

small.town.crime.2017.720p.bluray.x264.dts-mt.mkv + cz titulky
Info:
Jen registrovaní uživatelé mohou vidět odkazy v code. Přihlaste se nebo zaregistrujte ZDARMA.


Download:
Jen registrovaní uživatelé mohou vidět odkazy v code. Přihlaste se nebo zaregistrujte ZDARMA.


17 bře 2018, 00:40
Profil
Zobrazit příspěvky za předchozí:  Seřadit podle  
Odeslat nové téma Odpovědět na téma  [ Příspěvků: 2 ] 

Všechny časy jsou v UTC + 1 hodina


Nemůžete zakládat nová témata v tomto fóru
Nemůžete odpovídat v tomto fóru
Nemůžete upravovat své příspěvky v tomto fóru
Nemůžete mazat své příspěvky v tomto fóru
Nemůžete přikládat soubory v tomto fóru









StahovaniZaSMS Pizza Modena MP3 free download