fastshare
The Outsider (2018)
Vypnout statistiky
KATEGORIEPOSLEDNÍ PŘÍSPĚVKYPOSLEDNÍ OZNÁMENÍSTATISTIKY UŽIVATELE
Nick: Anonymous
Příspěvků: 3379
Hodnost: Warman
Varování: 0
---
Právě je 24 dub 2018, 09:35





Všechny časy jsou v UTC + 1 hodina


Pravidla fóra


    Pravidla pro Filmy - Novinky >>> ZDE <<< - Nepatří sem ripy z orig. DVD a Blu-Ray!





Odeslat nové téma Odpovědět na téma  [ Příspěvků: 3 ] 
 The Outsider (2018) 
Autor Zpráva
Warman
Warman
Uživatelský avatar

Registrován: 31 srp 2015, 17:58
Příspěvky: 2948
Příspěvek The Outsider (2018)

The Outsider (2018)
The Outsider (2018)
Jen registrovaní uživatelé mohou vidět odkazy v code. Přihlaste se nebo zaregistrujte ZDARMA.

The Outsider.2018.CZ titulky.720p.WEBRip.Avi
TITULKY - CZ v OBRAZEThe Outsider (2018)
AUDIO - EN
Použitý zdroj : The Outsider.2018.720p.WEBRip.x264-METCON
Jen registrovaní uživatelé mohou vidět odkazy v code. Přihlaste se nebo zaregistrujte ZDARMA.

The Outsider (2018)
The Outsider (2018)
Jen registrovaní uživatelé mohou vidět odkazy v code. Přihlaste se nebo zaregistrujte ZDARMA.


12 bře 2018, 07:53
Profil
Colonel
Colonel

Registrován: 15 zář 2017, 11:53
Příspěvky: 380
Příspěvek Re: The Outsider (2018)

The Outsider (2018)


Re: The Outsider (2018)


Jen registrovaní uživatelé mohou vidět odkazy v code. Přihlaste se nebo zaregistrujte ZDARMA.



The.Outsider.2018.1080p.WEB-DL.x264.CZ.Titulky


Format : Matroska
Format version : Version 4 / Version 2
File size : 2.42 GiB
Duration : 2h 0mn
Overall bit rate : 2 869 Kbps

Video
ID : 1
Format : AVC
Format/Info : Advanced Video Codec
Format profile : [email protected]
Format settings, CABAC : Yes
Format settings, ReFrames : 3 frames
Codec ID : V_MPEG4/ISO/AVC
Duration : 2h 0mn
Bit rate mode : Variable
Bit rate : 2 490 Kbps
Maximum bit rate : 3 735 Kbps
Width : 1 920 pixels
Height : 1 080 pixels
Display aspect ratio : 16:9
Frame rate : 24.000 fps
Color space : YUV
Chroma subsampling : 4:2:0
Bit depth : 8 bits
Scan type : Progressive
Bits/(Pixel*Frame) : 0.050
Stream size : 2.05 GiB (85%)

Audio
ID : 2
Format : AC-3
Format/Info : Audio Coding 3
Mode extension : CM (complete main)
Codec ID : A_AC3
Duration : 2h 0mn
Bit rate mode : Constant
Bit rate : 384 Kbps
Channel(s) : 6 channels
Channel positions : Front: L C R, Side: L R, LFE
Sampling rate : 48.0 KHz
Bit depth : 16 bits
Compression mode : Lossy
Stream size : 332 MiB (13%)
Title : AC3 5.1
Language : English

Text #1
ID : 3
Format : UTF-8
Codec ID : S_TEXT/UTF8
Codec ID/Info : UTF-8 Plain Text
Language : Czech

Text #2
ID : 4
Format : UTF-8
Codec ID : S_TEXT/UTF8
Codec ID/Info : UTF-8 Plain Text
Language : German



Jen registrovaní uživatelé mohou vidět odkazy v code. Přihlaste se nebo zaregistrujte ZDARMA.


12 bře 2018, 19:30
Profil
Master Sergant
Master Sergant

Registrován: 09 bře 2009, 18:27
Příspěvky: 139
Příspěvek Re: The Outsider (2018)

The Outsider (2018)[WebRip][720p]+ CZ Titulky


Cover:

Re: The Outsider (2018)

Info:

Jazyk: Eng
Titulky: Cz

Csfd:
Jen registrovaní uživatelé mohou vidět odkazy v code. Přihlaste se nebo zaregistrujte ZDARMA.

Info:
Format : Matroska at 1 738 kb/s
Length : 1,47 GiB for 2 h 0 min 58 sek. 400 ms

Video #0 : AVC at 1 352 kb/s
Aspect : 1280 x 536 (2.388) at 24.000 fps

Audio #0 : AC-3 at 384 kb/s
Infos : 6 kanálov, 48,0 kHz

Text #0 : UTF-8
Language : ceske

Download:
Jen registrovaní uživatelé mohou vidět odkazy v code. Přihlaste se nebo zaregistrujte ZDARMA.


17 bře 2018, 00:45
Profil
Zobrazit příspěvky za předchozí:  Seřadit podle  
Odeslat nové téma Odpovědět na téma  [ Příspěvků: 3 ] 

Všechny časy jsou v UTC + 1 hodina


Nemůžete zakládat nová témata v tomto fóru
Nemůžete odpovídat v tomto fóru
Nemůžete upravovat své příspěvky v tomto fóru
Nemůžete mazat své příspěvky v tomto fóru
Nemůžete přikládat soubory v tomto fóru









StahovaniZaSMS Pizza Modena MP3 free download