fastshare
Yankee Zulu (1993)
Vypnout statistiky
KATEGORIEPOSLEDNÍ PŘÍSPĚVKYPOSLEDNÍ OZNÁMENÍSTATISTIKY UŽIVATELE
Nick: Anonymous
Příspěvků: 3385
Hodnost: Warman
Varování: 0
---
Právě je 21 lis 2017, 21:55





Všechny časy jsou v UTC + 1 hodina


Pravidla fóra







Odeslat nové téma Odpovědět na téma  [ Příspěvků: 4 ] 
 Yankee Zulu (1993) 
Autor Zpráva
Warman
Warman
Uživatelský avatar

Registrován: 25 lis 2008, 11:02
Příspěvky: 6596
Příspěvek Re: Yankee Zulu (1993)

Yankee Zulu (1993)
Re: Yankee Zulu (1993)
AKTUÁLNĚ - 71%
Re: Yankee Zulu (1993)
Jen registrovaní uživatelé mohou vidět odkazy v code. Přihlaste se nebo zaregistrujte ZDARMA.

Citace:
Obsah:
Komedie

Jižní Afrika, 1993, 100 min
Režie: Gray Hofmeyr
Hrají: Leon Schuster, Wilson Dunster, Craig Gardner


Rhino a Zulu boli najlepší kamaráti. Je to už poriadne dávno, čo sa nevideli, ale teraz, po dvadsiatich piatich rokoch, sa im to môže stať. Zulu žije už roky v Amerike, kde si občas ukradne nejaké to auto, lenže do nekonečna sa to robiť nedá. A tak mu teraz hrozí deportácia domov. Naviac, v Južnej Afrike stále vládne apartheid a Zulu ako černoch to vo väzení nebude mať vôbec jednoduché. Lenže Zulu využije chvíľkovú nepozornosť a podarí sa mu utiecť. Spojí sa so svojim dávnym priateľom Rhinom a spoločne využijú služby televízneho maskéra, aby zažili to, čo sa zdanlivo zažiť nedá. Z Rhina sa stane černoch a Zulu si najbližšie dni bude užívať privilegované postavenie občana s bielou pleťou...

Re: Yankee Zulu (1993)

Re: Yankee Zulu (1993)
Citace:
General
Complete name : Z:\DVD UPLOAD\Yankee Zulu (1993) DVDRip CZ.avi
Format : AVI
Format/Info : Audio Video Interleave
File size : 868 MiB
Duration : 1h 29mn
Overall bit rate : 1 354 Kbps

Video
ID : 0
Format : MPEG-4 Visual
Codec ID : DIV3
Codec ID/Hint : DivX 3 Low
Duration : 1h 29mn
Bit rate : 1 152 Kbps
Width : 512 pixels
Height : 384 pixels
Display aspect ratio : 4:3
Frame rate : 25.000 fps
Color space : YUV
Chroma subsampling : 4:2:0
Bit depth : 8 bits
Bits/(Pixel*Frame) : 0.234
Stream size : 739 MiB (85%)

Audio
ID : 1
Format : AC-3
Format/Info : Audio Coding 3
Mode extension : CM (complete main)
Codec ID : 2000
Duration : 1h 29mn
Bit rate mode : Constant
Bit rate : 192 Kbps
Channel(s) : 2 channels
Channel positions : Front: L R
Sampling rate : 48.0 KHz
Bit depth : 16 bits
Stream size : 123 MiB (14%)
Alignment : Aligned on interleaves
Interleave, duration : 40 ms (1.00 video frame)


Re: Yankee Zulu (1993)
Jen registrovaní uživatelé mohou vidět odkazy v code. Přihlaste se nebo zaregistrujte ZDARMA.


Bez hesla
Přidán záznam na opravu dat 5%


26 čer 2011, 13:50
Profil
Warman
Warman
Uživatelský avatar

Registrován: 20 led 2008, 15:08
Příspěvky: 1059
Příspěvek Re: Yankee Zulu (1993)

Re: Yankee Zulu (1993)


Yankee Zulu / Yankee Zulu (1993) DvdRip.cz

Země: Jižní Afrika 1993
Trvání: 100 min
Hodnocení: 71%
Žánr: Drama, Komedie,
Režírujú: Gray Hofmeyr,
Hrají: Leon Schuster, Craig Gardner, Wilson Dunster,


Jen registrovaní uživatelé mohou vidět odkazy v code. Přihlaste se nebo zaregistrujte ZDARMA.



Citace:
Rhino a Zulu boli najlepší kamaráti. Je to už poriadne dávno, čo sa nevideli, ale teraz,
po dvadsiatich piatich rokoch, sa im to môže stať. Zulu žije už roky v Amerike, kde si
občas ukradne nejaké to auto, lenže do nekonečna sa to robiť nedá. A tak mu teraz hrozí
deportácia domov. Naviac, v Južnej Afrike stále vládne apartheid a Zulu ako černoch to vo
väzení nebude mať vôbec jednoduché. Lenže Zulu využije chvíľkovú nepozornosť a podarí sa
mu utiecť. Spojí sa so svojim dávnym priateľom Rhinom a spoločne využijú služby televízneho
maskéra, aby zažili to, čo sa zdanlivo zažiť nedá. Z Rhina sa stane černoch a Zulu si
najbližšie dni bude užívať privilegované postavenie občana s bielou pleťou...



Jen registrovaní uživatelé mohou vidět odkazy v code. Přihlaste se nebo zaregistrujte ZDARMA.


Jen registrovaní uživatelé mohou vidět odkazy v code. Přihlaste se nebo zaregistrujte ZDARMA.


Jen registrovaní uživatelé mohou vidět odkazy v code. Přihlaste se nebo zaregistrujte ZDARMA.


19 čer 2014, 13:43
Profil
Lieutenant
Lieutenant

Registrován: 04 led 2008, 07:29
Příspěvky: 248
Příspěvek Re: Yankee Zulu (1993)

Yankee Zulu / Yankee Zulu (1993)

Re: Yankee Zulu (1993)

Jen registrovaní uživatelé mohou vidět odkazy v code. Přihlaste se nebo zaregistrujte ZDARMA.


Jen registrovaní uživatelé mohou vidět odkazy v code. Přihlaste se nebo zaregistrujte ZDARMA.


Re: Yankee Zulu (1993)

Jen registrovaní uživatelé mohou vidět odkazy v code. Přihlaste se nebo zaregistrujte ZDARMA.


22 říj 2017, 19:06
Profil
Zobrazit příspěvky za předchozí:  Seřadit podle  
Odeslat nové téma Odpovědět na téma  [ Příspěvků: 4 ] 

Všechny časy jsou v UTC + 1 hodina


Nemůžete zakládat nová témata v tomto fóru
Nemůžete odpovídat v tomto fóru
Nemůžete upravovat své příspěvky v tomto fóru
Nemůžete mazat své příspěvky v tomto fóru
Nemůžete přikládat soubory v tomto fóru









StahovaniZaSMS Pizza Modena MP3 free download