fastshare
Jigsaw / SAW 8 (2017)
Vypnout statistiky
KATEGORIEPOSLEDNÍ PŘÍSPĚVKYPOSLEDNÍ OZNÁMENÍSTATISTIKY UŽIVATELE
Nick: Anonymous
Příspěvků: 3361
Hodnost: Warman
Varování: 0
---
Právě je 18 říj 2018, 23:13





Všechny časy jsou v UTC + 1 hodina


Pravidla fóra





Odeslat nové téma Odpovědět na téma  [ Příspěvků: 2 ] 
 Jigsaw / SAW 8 (2017) 
Autor Zpráva
General
General

Registrován: 27 zář 2009, 04:13
Příspěvky: 833
Příspěvek Re: Jigsaw / SAW 8 (2017)

Saw 8 - Jigsaw / Jigsaw (2017)

Release:
Saw.8.Jigsaw.2017.DVDRip.XviD.MP3.EN.CZ.SUB

Re: Jigsaw / SAW 8 (2017)

Info:
Jen registrovaní uživatelé mohou vidět odkazy v code. Přihlaste se nebo zaregistrujte ZDARMA.


Info o kvalitě:
Jen registrovaní uživatelé mohou vidět odkazy v code. Přihlaste se nebo zaregistrujte ZDARMA.


Obsah filmu:
Zohavená těla se začnou objevovat na různých místech ve městě. V průběhu vyšetřování všechny důkazy jednoznačně ukazují na jednoho muže: Johna Kramera. Jak to jen může být možné? Muž zvaný Jigsaw je totiž více než 10 let po smrti. Pokračování známé hororové sérieSAW je tu znovu.... Těšte se, budete se bát.

Horor / Thriller / Krimi / Mysteriózní
USA / Kanada, 2017, 91 min.

Režie: Michael Spierig, Peter Spierig
Scénář: Pete Goldfinger, Josh Stolberg
Kamera: Ben Nott
Hudba: Charlie Clouser
Hrají: Tobin Bell, Matt Passmore, Callum Keith Rennie, Laura Vandervoort,Hannah Emily Anderson, Clé Bennett, Paul Braunstein, Brittany Allen,Michael Boisvert, Mandela Van Peebles, Josiah Black, Edward Ruttle
Producenti: Mark Burg, Oren Koules, Gregg Hoffman
Střih: Kevin Greutert
Scénografie: Anthony Cowley
Kostýmy: Steven Wright


Odkazy ke stažení:
Jen registrovaní uživatelé mohou vidět odkazy v code. Přihlaste se nebo zaregistrujte ZDARMA.


Jen registrovaní uživatelé mohou vidět odkazy v code. Přihlaste se nebo zaregistrujte ZDARMA.


22 kvě 2018, 00:48
Profil
Major
Major

Registrován: 30 pro 2007, 17:16
Příspěvky: 348
Příspěvek Re: Jigsaw / SAW 8 (2017)

Jigsaw (2017)
Video/Zdroj: BluRay 1080p
Audio: EN AAC 2ch
Titulky: CZ externé

Re: Jigsaw / SAW 8 (2017)

CSFD / IMDB
Jen registrovaní uživatelé mohou vidět odkazy v code. Přihlaste se nebo zaregistrujte ZDARMA.


INFO
Citace:
Format : MPEG-4
File size : 1.40 GiB
Duration : 1h 31mn
Overall bit rate : 2 176 Kbps

Video
Format : AVC
Format profile : [email protected]
Duration : 1h 31mn
Bit rate : 2 050 Kbps
Width : 1 920 pixels
Height : 800 pixels
Display aspect ratio : 2.40:1
Frame rate mode : Constant
Frame rate : 23.976 fps
Color space : YUV
Chroma subsampling : 4:2:0
Bit depth : 8 bits
Scan type : Progressive
Bits/(Pixel*Frame) : 0.056
Stream size : 1.32 GiB (94%)

Audio
Format : AAC
Duration : 1h 31mn
Duration_LastFrame : -11ms
Bit rate mode : Constant
Bit rate : 122 Kbps
Channel(s) : 2 channels
Channel positions : Front: L R
Sampling rate : 48.0 KHz
Frame rate : 46.875 fps (1024 spf)
Compression mode : Lossy
Stream size : 80.1 MiB (6%)


Fastshare
Jen registrovaní uživatelé mohou vidět odkazy v code. Přihlaste se nebo zaregistrujte ZDARMA.


25 zář 2018, 09:44
Profil
Zobrazit příspěvky za předchozí:  Seřadit podle  
Odeslat nové téma Odpovědět na téma  [ Příspěvků: 2 ] 

Všechny časy jsou v UTC + 1 hodina


Nemůžete zakládat nová témata v tomto fóru
Nemůžete odpovídat v tomto fóru
Nemůžete upravovat své příspěvky v tomto fóru
Nemůžete mazat své příspěvky v tomto fóru
Nemůžete přikládat soubory v tomto fóru









StahovaniZaSMS Pizza Modena MP3 free download